img image001 image001 image001 image001 image001 image001 image001 image001 image001 image001 image001 image001 image001 image001 image001

Planets Sun Sun Sun
Статистика раздачи
Автор: PriZraK | Размер: 1.34 ГБ | Добавлен: 24 окт 2016
Раздают: 25    Качают: 0
Скачать торрент
Скачать торрент
Описание торрента

СообщениеДобавлено: 24 окт 2016 


Информация о фильме
Название: Первоклашки
Год выхода: 2012
Жанр: детский фильм, комедия, музыкальный фильм, сказка
Режиссер: Анна Артамонова
В ролях: Софья Мицкевич, Александр Бирюков, Иван Шалякин, Екатерина Копанова, Пётр Складчиков, Даниил Филенко, Роман Селецкий, Настя Плюснина, Александр Жоголь
О фильме:
Лёгкая музыкальная комедия, пронизанная оптимизмом, солнечным светом, радостью бытия, музыкой, танцами и юмором, расскажет забавную историю, которая приключилась с очень юными героями накануне первого сентября.
Пупышон - любознательный юный инопланетянин, ослушавшийся маму и случайно прилетевший в обыкновенный земной город. Однако фильм ни в коем случае не относится к жанру фантастики. Так случилось, что первыми на земле он рассмотрел в свою подзорную трубу девочку Настю и мальчика Кныша. Конечно, он сразу же решил найти ребят и познакомиться с ними.
Действие фильма происходит накануне 1 сентября, когда в силу случайных обстоятельств герои неожиданно встретятся. Разные характеры, воспитание, жизненный опыт делают их такими разными, что, казалось бы, они никогда не смогут найти общий язык и стать друзьями. Но постепенно эти совершенно незнакомые друг другу и далёкие по своим интересам ребята, пройдя забавные, весёлые и грустные, поучительные и очень важные для себя испытания, станут верными и самыми лучшими друзьями. Они решат все вместе пойти в обыкновенную школу. Даже гуманоид Пупышон, всезнающий кандидат энциклопедических наук, несмотря на свой малый рост и возраст станет первоклассником.
Этот музыкальный комедийный фильм адресуется семейной аудитории и, прежде всего, дошкольникам и ребятам младшего школьного возраста.
Доп. информация:
Сценарист: Валерий Козлов
Оператор: Дмитрий Шабалдин
Композитор: Владимир Купцов
Художник: Андрей Желудков
Продюсер: Виталий Сидоренко

Запись потока *.ts с наземного цифрового телеканала "Беларусь 3".
Во время фильма и финальных титров происходит показ анонса следующей передачи - видно на сринах.
Благодарность: за помощь с недостающим материалом Bartimeyse и PavelDAS. Обоим большое спасибо!
Страна: Россия
Студия: "Ракурс" при финансовой поддержке Министерства культуры Российской Федерации
Продолжительность: 01:12:36
Перевод: Не требует
Файл
Кодек: AVC (H264)
Качество: DVB
Видео: MPEG4 Video (H264) 720(785)x576 (49:36) 25fps, 2 252 kb/s
Звук: MPEG Audio 48000Hz stereo 256kbps
Семпл
Код:
General
ID                             : 1 (0x1)
Complete name                  : D:Новая  земля 2Художественные фильмыПервоклашки (2012)Первоклашки (2012).ts
Format                         : MPEG-TS
File size                      : 1.34 GiB
Duration                       : 1 h 12 min
Overall bit rate mode          : Variable
Overall bit rate               : 2 641 kb/s
Video
ID                             : 801 (0x321)
Menu ID                        : 1 (0x1)
Format                         : AVC
Format/Info                    : Advanced Video Codec
Format profile                 : Main@L3
Format settings, CABAC         : Yes
Format settings, ReFrames      : 4 frames
Format settings, GOP           : M=4, N=24
Codec ID                       : 27
Duration                       : 1 h 12 min
Bit rate                       : 2 252 kb/s
Width                          : 720 pixels
Height                         : 576 pixels
Display aspect ratio           : 4:3
Frame rate                     : 25.000 FPS
Standard                       : PAL
Color space                    : YUV
Chroma subsampling             : 4:2:0
Bit depth                      : 8 bits
Scan type                      : MBAFF
Scan type, store method        : Interleaved fields
Scan order                     : Top Field First
Bits/(Pixel*Frame)             : 0.217
Stream size                    : 1.14 GiB (85%)
Color range                    : Limited
Color primaries                : BT.601 PAL
Transfer characteristics       : BT.470 System B, BT.470 System G
Matrix coefficients            : BT.601
Audio
ID                             : 802 (0x322)
Menu ID                        : 1 (0x1)
Format                         : MPEG Audio
Format version                 : Version 1
Format profile                 : Layer 2
Codec ID                       : 3
Duration                       : 1 h 12 min
Bit rate mode                  : Constant
Bit rate                       : 256 kb/s
Channel(s)                     : 2 channels
Sampling rate                  : 48.0 kHz
Compression mode               : Lossy
Stream size                    : 133 MiB (10%)
Language                       : English







   Похожие торренты   Торрент   Размер 
В этой теме нет новых непрочитанных сообщений. Первоклашки (2012) SATRip-AVC

0 | 0

748.96 МБ

В этой теме нет новых непрочитанных сообщений. Первоклашки (2012) SATRip

9 | 0

1016.53 МБ

В этой теме нет новых непрочитанных сообщений. Славянский базар 2012. Гала-концерт мастеров искусств Беларуси (2012) DVB от AND03AND

0 | 0

1.79 ГБ

В этой теме нет новых непрочитанных сообщений. Концерт академический ансамбль народного танца имени И.Моисеева. Славянский Базар 2012 (2012) BD DVB от AND03AND

0 | 1

1.67 ГБ

В этой теме нет новых непрочитанных сообщений. Славянский базар 2012. Антология (2012) DVB от AND03AND

3 | 0

989.44 МБ

В этой теме нет новых непрочитанных сообщений. Украсть Бельмондо (2012) DVB от AND03AND

1 | 0

2 ГБ

В этой теме нет новых непрочитанных сообщений. ...после Византии (2012) DVB от AND03AND

74 | 10

1.55 ГБ




Вы не можете начинать темы
Вы не можете отвечать на сообщения
Вы не можете редактировать свои сообщения
Вы не можете удалять свои сообщения
Вы не можете добавлять вложения

Перейти:  
Для Мосгорсуда, Роскомнадзора и рекламодателей: mosgorsud-torrent[собачка]yandex.ru
 Вход
ppkBB3cker v.2 © 2008-2014 @ PPK
[ Time : 0.047s | 14 Queries | GZIP : Off ]

Торрент трекер RUTOR.IN, Не можете зайти на rutor.org? Какой новый адрес рутор? Какое зеркало рутор? Не работает rutor.org и зеркала? Тогда наш торрент специально для вас. Rutor.in неофициальное зеркало rutor. В случае если у Вас заблокирован rutor или вдруг Вы не можете на него зайти, то Вы без труда сможете скачать бесплатно и без рекламы последние новинки кино, игр, сериалов и прочего у нас, на Rutor.in. Не нужно использовать прокси, чтобы зайти на рутор, достаточно воспользоваться нашим ресурсом. Все новые фильмы, игры, сериалы, книги и музыка за 2013 и 2014 годы через торрент бесплатно. Скачивайте фильмы в хорошем качестве, игры для пк, xbox, playstation без регистрации. У нас вы найдете новые Зарубежные сериалы и Русские сериалы 2013, 2014, 2015 годов. Оставайтесь с нами, качайте любимые фильмы, игры, сериалы, книги и музыку.