img image001 image001 image001 image001 image001 image001 image001 image001 image001 image001 image001 image001 image001 image001 image001

Planets Sun Sun Sun
Статистика раздачи
Автор: PriZraK | Размер: 2.39 ГБ | Добавлен: 25 окт 2016
Раздают: 28    Качают: 4
Скачать торрент
Скачать торрент
Описание торрента

СообщениеДобавлено: 25 окт 2016 


Информация о фильме
Название: Сказка о царе Салтане
Год выхода: 1966
Жанр: Фэнтези, семейный
Режиссер: Александр Птушко
В ролях: Владимир Андреев, Лариса Голубкина, Олег Видов, Ксения Рябинкина, Николай Бармин, Яков Беленький, Нина Беляева, Борис Битюков, Юрий Чекулаев, Анатолий Дегтярь, Владимир Ферапонтов, Сергей Голованов, Вера Ивлева, Артём Карапетян, Юрий Киреев, Виктор Колпаков, Сергей Мартинсон, Евгений Майхровский, Григорий Михайлов, Сарра Мокиль, Олег Мокшанцев, Валерий Носик, Михаил Орлов, Дмитрий Орловский, Павел Шальнов, Григорий Шпигель, Гурген Тонунц, Виктор Уральский, Зоя Василькова, Ольга Викландт, Валентина Ананьина, Елена Вольская
О фильме:
Три девицы под окном пряли поздно вечерком… А потом много чего было: и любовь, и клевета, и предательство, и чудеса, и множество волшебных приключений, и тридцать три богатыря, и, конечно же, счастливый конец…

Страна: СССР
Студия: Мосфильм
Продолжительность: 01:21:36
Перевод: Не требуется
Файл
Качество: HDTVRip 720p
Формат: MKV
Кодек: MPEG-4 AVC Video
Видео: 1280x538 (2,40:1), 25 fps, MPEG-4 AVC ~4000 kbps avg, 0.232 bit/pixel
Аудио: AC3, 48 kHz, 2 ch, ~192.00 kbps avg | русский
Субтитры: Отсутствуют
Семпл
Общее
Уникальный идентификатор : 204977718169584213829407214507247939775 (0x9A3545C4E2E68A68BDAE900D0DDA30BF)
Полное имя : D:TorrentsЗавершенныеSkazka.O.Tsare.Saltane.1966.720p.mkv
Формат : Matroska
Версия формата : Version 4 / Version 2
Размер файла : 2,39 Гбайт
Продолжительность : 1 ч. 21 м.
Общий поток : 4187 Кбит/сек
Название фильма : Сказка о царе Салтане (1966)
Дата кодирования : UTC 2016-10-23 22:26:33
Программа кодирования : mkvmerge v8.3.0 ('Over the Horizon') 64bit
Библиотека кодирования : libebml v1.3.1 + libmatroska v1.4.2
DURATION : 01:21:35.872000000
NUMBER_OF_FRAMES : 152996
NUMBER_OF_BYTES : 117500928
_STATISTICS_WRITING_APP : mkvmerge v8.3.0 ('Over the Horizon') 64bit
_STATISTICS_WRITING_DATE_UTC : 2016-10-23 22:26:33
_STATISTICS_TAGS : BPS DURATION NUMBER_OF_FRAMES NUMBER_OF_BYTES
Видео
Идентификатор : 1
Формат : AVC
Формат/Информация : Advanced Video Codec
Профиль формата : High@L4.1
Параметр CABAC формата : Да
Параметр ReFrames формата : 8 кадров
Идентификатор кодека : V_MPEG4/ISO/AVC
Продолжительность : 1 ч. 21 м.
Битрейт : 4000 Кбит/сек
Ширина : 1280 пикселей
Высота : 538 пикселей
Соотношение сторон : 2,40:1
Режим частоты кадров : Постоянный
Частота кадров : 25,000 кадров/сек
Цветовое пространство : YUV
Субдискретизация насыщенности : 4:2:0
Битовая глубина : 8 бит
Тип развёртки : Прогрессивная
Бит/(Пиксели*Кадры) : 0.232
Размер потока : 2,23 Гбайт (93%)
Заголовок : Skazka.O.Tsare.Saltane.1966.720p
Библиотека кодирования : x264 core 148 r2705 3f5ed56
Настройки программы : cabac=1 / ref=8 / deblock=1:-1:0 / analyse=0x3:0x133 / me=umh / subme=11 / psy=1 / psy_rd=1.10:0.50 / mixed_ref=1 / me_range=30 / chroma_me=1 / trellis=2 / 8x8dct=1 / cqm=0 / deadzone=21,11 / fast_pskip=1 / chroma_qp_offset=-4 / threads=12 / lookahead_threads=1 / sliced_threads=0 / nr=0 / decimate=0 / interlaced=0 / bluray_compat=0 / constrained_intra=0 / bframes=3 / b_pyramid=2 / b_adapt=1 / b_bias=0 / direct=1 / weightb=1 / open_gop=0 / weightp=2 / keyint=240 / keyint_min=24 / scenecut=40 / intra_refresh=0 / rc_lookahead=40 / rc=abr / mbtree=1 / bitrate=4000 / ratetol=1.0 / qcomp=0.60 / qpmin=0 / qpmax=69 / qpstep=4 / vbv_maxrate=62500 / vbv_bufsize=78125 / nal_hrd=none / filler=0 / ip_ratio=1.40 / aq=1:1.00
Язык : Russian
Default : Да
Forced : Да
Цветовой диапазон : Limited
Основные цвета : BT.709
Характеристики трансфера : BT.709
Коэффициенты матрицы : BT.709
DURATION : 01:21:35.760000000
NUMBER_OF_FRAMES : 122394
NUMBER_OF_BYTES : 2444021434
_STATISTICS_WRITING_APP : mkvmerge v8.3.0 ('Over the Horizon') 64bit
_STATISTICS_WRITING_DATE_UTC : 2016-10-23 22:26:33
_STATISTICS_TAGS : BPS DURATION NUMBER_OF_FRAMES NUMBER_OF_BYTES
Аудио
Идентификатор : 2
Формат : AC-3
Формат/Информация : Audio Coding 3
Расширение режима : CM (complete main)
Параметр Endianness формата : Big
Идентификатор кодека : A_AC3
Продолжительность : 1 ч. 21 м.
Вид битрейта : Постоянный
Битрейт : 192 Кбит/сек
Каналы : 2 канала
Расположение каналов : Front: L R
Частота : 48,0 КГц
Метод сжатия : С потерями
Размер потока : 112 Мбайт (5%)
Default : Да
Forced : Нет



   Похожие торренты   Торрент   Размер 
В этой теме нет новых непрочитанных сообщений. Сказка о царе Салтане (1966) HDTVRip от ImperiaFilm

32 | 0

744.28 МБ

В этой теме нет новых непрочитанных сообщений. Сказка о царе Салтане (1966) DVDRip-AVC

45 | 3

698.29 МБ

В этой теме нет новых непрочитанных сообщений. Сказка о царе Салтане (1966) DVDRip | Реставрация

290 | 18

1.47 ГБ

В этой теме нет новых непрочитанных сообщений. Сказка о царе Салтане (1966) DVD5 | Реставрация

54 | 7

4.31 ГБ

В этой теме нет новых непрочитанных сообщений. Сказка о царе Салтане (1966) DVDRip от ExKinoRay | Реставрация

278 | 37

1.37 ГБ

В этой теме нет новых непрочитанных сообщений. Сказка о царе Салтане (1984) HDTVRip 720p от SDIncorporation

4435 | 9

1.78 ГБ

В этой теме нет новых непрочитанных сообщений. Сказка о царе Салтане / (1984) DVDRip-AVC от SDIncorporation

53 | 6

855.46 МБ




Вы не можете начинать темы
Вы не можете отвечать на сообщения
Вы не можете редактировать свои сообщения
Вы не можете удалять свои сообщения
Вы не можете добавлять вложения

Перейти:  
Для Мосгорсуда, Роскомнадзора и рекламодателей: mosgorsud-torrent[собачка]yandex.ru
 Вход
ppkBB3cker v.2 © 2008-2014 @ PPK
[ Time : 0.038s | 15 Queries | GZIP : Off ]

Торрент трекер RUTOR.IN, Не можете зайти на rutor.org? Какой новый адрес рутор? Какое зеркало рутор? Не работает rutor.org и зеркала? Тогда наш торрент специально для вас. Rutor.in неофициальное зеркало rutor. В случае если у Вас заблокирован rutor или вдруг Вы не можете на него зайти, то Вы без труда сможете скачать бесплатно и без рекламы последние новинки кино, игр, сериалов и прочего у нас, на Rutor.in. Не нужно использовать прокси, чтобы зайти на рутор, достаточно воспользоваться нашим ресурсом. Все новые фильмы, игры, сериалы, книги и музыка за 2013 и 2014 годы через торрент бесплатно. Скачивайте фильмы в хорошем качестве, игры для пк, xbox, playstation без регистрации. У нас вы найдете новые Зарубежные сериалы и Русские сериалы 2013, 2014, 2015 годов. Оставайтесь с нами, качайте любимые фильмы, игры, сериалы, книги и музыку.
cron