img image001 image001 image001 image001 image001 image001 image001 image001 image001 image001 image001 image001 image001 image001 image001

Planets Sun Sun Sun
Статистика раздачи
Автор: PriZraK | Размер: 2.05 ГБ | Добавлен: 26 окт 2016
Раздают: 12    Качают: 0
Скачать торрент
Скачать торрент
Описание торрента

СообщениеДобавлено: 26 окт 2016 

Информация о фильме
Название: Десять негритят
Оригинальное название: Оригинальное название (для иностранных фильмов)
Год выхода: 1987
Жанр: криминал, детектив, триллер
Режиссер: Станислав Говорухин
В ролях: Владимир Зельдин, Татьяна Друбич, Александр Кайдановский, Алексей Жарков, Анатолий Ромашин, Людмила Максакова, Михаил Глузский, Алексей Золотницкий, Ирина Терещенко, Александр Абдулов
О фильме:
Десять человек приглашены на Негритянский остров под разными предлогами. Оказавшись в замке, каждый слышит записанный на пластинку смертный приговор. На столе — черные фигурки негритят, в каждой спальне — стишок на стене. «Десять негритят решили пообедать, один из них вдруг поперхнулся, и их осталось девять». Умирает человек — исчезает фигурка негритенка…
Доп информация:Рип с немецкого издания "Pidax-Film"

Страна: СССР
Студия: Одесская киностудия
Продолжительность: 02:09:21
Перевод: Не требуется: оригинал
Файл
Кодек: AVC
Качество: DVDRip-AVC
Видео: 708x576@775x576, 1880 kbps, 25 fps, 0,184 Bits/(Pixel*Frame)
Звук:
1. AC3, 48 kHz, 2 ch, 192 kbps - RUS (Оригинал)
2. AC3, 48 kHz, 2 ch, 192 kbps - GER
Субтитры: Нет
Общее
Unique ID : 175701155511245216718895778872762301682 (0x842ECFC95C1297BE9BE7A91BC2C3FCF2)
Complete name : K:[Agatha Christie - Das letzte Weekend]_(1987)_DVD9_R2VIDEO_TSTen.Niggers.1987.DVDRip-AVC_by_Bathory.mkv
Format : Matroska
Format version : Version 2
File size : 2,05 Гбайт
Duration : 2 ч. 9 м.
Overall bit rate : 2266 Кбит/сек
Encoded date : UTC 2016-10-24 19:28:47
Writing application : mkvmerge v9.5.0 ('Quiet Fire') 32bit
Writing library : libebml v1.3.4 + libmatroska v1.4.5
Видео
ID : 1
Format : AVC
Format/Info : Advanced Video Codec
Format profile : High@L4.1
Format settings, CABAC : Да
Format settings, ReFrames : 12 кадров
Codec ID : V_MPEG4/ISO/AVC
Duration : 2 ч. 9 м.
Bit rate : 1880 Кбит/сек
Width : 708 пикселей
Height : 576 пикселей
Display aspect ratio : 4:3
Frame rate mode : Постоянный
Frame rate : 25,000 кадров/сек
Color space : YUV
Chroma subsampling : 4:2:0
Bit depth : 8 бит
Scan type : Прогрессивная
Bits/(Pixel*Frame) : 0.184
Stream size : 1,70 Гбайт (83%)
Writing library : x264 core 148 r2721 72d53ab
Encoding settings : cabac=1 / ref=12 / deblock=1:-2:-2 / analyse=0x3:0x133 / me=umh / subme=11 / psy=1 / psy_rd=1.12:0.14 / mixed_ref=1 / me_range=32 / chroma_me=1 / trellis=2 / 8x8dct=1 / cqm=0 / deadzone=21,11 / fast_pskip=0 / chroma_qp_offset=-3 / threads=12 / lookahead_threads=3 / sliced_threads=0 / nr=0 / decimate=0 / interlaced=0 / bluray_compat=0 / constrained_intra=0 / bframes=16 / b_pyramid=2 / b_adapt=2 / b_bias=0 / direct=3 / weightb=1 / open_gop=0 / weightp=2 / keyint=250 / keyint_min=25 / scenecut=0 / intra_refresh=0 / rc_lookahead=60 / rc=2pass / mbtree=1 / bitrate=1880 / ratetol=1.0 / qcomp=0.70 / qpmin=0 / qpmax=51 / qpstep=4 / cplxblur=15.0 / qblur=0.5 / vbv_maxrate=50000 / vbv_bufsize=62500 / nal_hrd=none / filler=0 / ip_ratio=1.40 / aq=2:1.00
Default : Да
Forced : Нет
Аудио #1
ID : 2
Format : AC-3
Format/Info : Audio Coding 3
Mode extension : CM (complete main)
Format settings, Endianness : Big
Codec ID : A_AC3
Duration : 2 ч. 9 м.
Bit rate mode : Постоянный
Bit rate : 192 Кбит/сек
Channel(s) : 2 канала
Channel positions : Front: L R
Sampling rate : 48,0 КГц
Frame rate : 31,250 кадров/сек (1536 spf)
Compression mode : С потерями
Stream size : 178 Мбайт (8%)
Language : new
Default : Да
Forced : Нет
Аудио #2
ID : 3
Format : AC-3
Format/Info : Audio Coding 3
Mode extension : CM (complete main)
Format settings, Endianness : Big
Codec ID : A_AC3
Duration : 2 ч. 9 м.
Bit rate mode : Постоянный
Bit rate : 192 Кбит/сек
Channel(s) : 2 канала
Channel positions : Front: L R
Sampling rate : 48,0 КГц
Frame rate : 31,250 кадров/сек (1536 spf)
Compression mode : С потерями
Stream size : 178 Мбайт (8%)
Language : new
Default : Нет
Forced : Нет


Автор рипа: _Bathory_



   Похожие торренты   Торрент   Размер 
В этой теме нет новых непрочитанных сообщений. Десять негритят (1987) DVDRip

655 | 21

2.21 ГБ

В этой теме нет новых непрочитанных сообщений. Десять негритят (1987) DVDRip

351 | 32

2.05 ГБ

В этой теме нет новых непрочитанных сообщений. Десять негритят (1987) DVDRip от MediaClub | КПК

102 | 9

585.92 МБ

В этой теме нет новых непрочитанных сообщений. Десять негритят (1987) HDTVRip-AVC

22 | 0

1.45 ГБ

В этой теме нет новых непрочитанных сообщений. Десять негритят (1987) HDTVRip-AVC

27 | 0

750.05 МБ

В этой теме нет новых непрочитанных сообщений. Десять негритят (1987) HDTVRip от Шкипер

26 | 2

762.63 МБ

В этой теме нет новых непрочитанных сообщений. Десять негритят (1987) HDTVRip от Portablius

115 | 6

1.45 ГБ




Вы не можете начинать темы
Вы не можете отвечать на сообщения
Вы не можете редактировать свои сообщения
Вы не можете удалять свои сообщения
Вы не можете добавлять вложения

Перейти:  
Для Мосгорсуда, Роскомнадзора и рекламодателей: mosgorsud-torrent[собачка]yandex.ru
 Вход
ppkBB3cker v.2 © 2008-2014 @ PPK
[ Time : 0.044s | 17 Queries | GZIP : Off ]

Торрент трекер RUTOR.IN, Не можете зайти на rutor.org? Какой новый адрес рутор? Какое зеркало рутор? Не работает rutor.org и зеркала? Тогда наш торрент специально для вас. Rutor.in неофициальное зеркало rutor. В случае если у Вас заблокирован rutor или вдруг Вы не можете на него зайти, то Вы без труда сможете скачать бесплатно и без рекламы последние новинки кино, игр, сериалов и прочего у нас, на Rutor.in. Не нужно использовать прокси, чтобы зайти на рутор, достаточно воспользоваться нашим ресурсом. Все новые фильмы, игры, сериалы, книги и музыка за 2013 и 2014 годы через торрент бесплатно. Скачивайте фильмы в хорошем качестве, игры для пк, xbox, playstation без регистрации. У нас вы найдете новые Зарубежные сериалы и Русские сериалы 2013, 2014, 2015 годов. Оставайтесь с нами, качайте любимые фильмы, игры, сериалы, книги и музыку.