img image001 image001 image001 image001 image001 image001 image001 image001 image001 image001 image001 image001 image001 image001 image001

Planets Sun Sun Sun
Статистика раздачи
Автор: PriZraK | Размер: 2.76 ГБ | Добавлен: 27 окт 2016
Раздают: 53    Качают: 7
Скачать торрент
Скачать торрент
Описание торрента

СообщениеДобавлено: 27 окт 2016 


Информация о фильме
Название: Самая обаятельная и привлекательная
Год выхода: 1985
Жанр: Мелодрама, комедия
Режиссер: Геральд Бежанов
В ролях: Ирина Муравьёва, Татьяна Васильева, Александр Абдулов, Леонид Куравлёв, Михаил Кокшенов, Людмила Иванова, Лариса Удовиченко, Владимир Носик, Александр Ширвиндт, Лев Перфилов, Любовь Соколова, Вероника Изотова, Виктор Ильичёв, Гурам Абесадзе, Виктор Филиппов, Людмила Карауш, Георгий Мартиросян, Владимир Мышкин, Яков Саркисов, Вера Сотникова, Игорь Ясулович, Екатерина Куравлева, Геральд Бежанов, Анатолий Эйрамджан
О фильме:
У инженера Нади Клюевой максимум общественной, но минимум личной жизни. Все меняется, когда она случайно встречает в автобусе свою старую знакомую, школьную одноклассницу Сусанну, ныне работающую социологом на заводе бытовых кондиционеров. Сусанна решает наладить личную жизнь своей подруги, используя научный метод.

Страна: СССР
Студия: Мосфильм
Продолжительность: 01:20:16
Перевод: Не требуется
Файл
Качество: HDTVRip 720p
Формат: MKV
Кодек: MPEG-4 AVC Video
Видео: 1280x552 (2,35:1), 25 fps, MPEG-4 AVC ~4500 kbps avg, 0.255 bit/pixel
Аудио: AC3, 48 kHz, 6 ch, ~448.00 kbps avg | русский
Субтитры: Отсутствуют
Семпл
Общее
Уникальный идентификатор : 254207436032879702107221722939948624012 (0xBF3E9241A51C08098CB1E6FA12BD688C)
Полное имя : D:TorrentsЗавершенныеSamaya.Obayatelnaya.I.Privlekatelnaya.1985.720p.mkv
Формат : Matroska
Версия формата : Version 4 / Version 2
Размер файла : 2,76 Гбайт
Продолжительность : 1 ч. 20 м.
Общий поток : 4931 Кбит/сек
Название фильма : Самая обаятельная и привлекательная (1985)
Дата кодирования : UTC 2016-10-26 21:15:57
Программа кодирования : mkvmerge v8.3.0 ('Over the Horizon') 64bit
Библиотека кодирования : libebml v1.3.1 + libmatroska v1.4.2
DURATION : 01:20:16.064000000
NUMBER_OF_FRAMES : 150502
NUMBER_OF_BYTES : 269699584
_STATISTICS_WRITING_APP : mkvmerge v8.3.0 ('Over the Horizon') 64bit
_STATISTICS_WRITING_DATE_UTC : 2016-10-26 21:15:57
_STATISTICS_TAGS : BPS DURATION NUMBER_OF_FRAMES NUMBER_OF_BYTES
Видео
Идентификатор : 1
Формат : AVC
Формат/Информация : Advanced Video Codec
Профиль формата : High@L4.1
Параметр CABAC формата : Да
Параметр ReFrames формата : 8 кадров
Идентификатор кодека : V_MPEG4/ISO/AVC
Продолжительность : 1 ч. 20 м.
Битрейт : 4500 Кбит/сек
Ширина : 1280 пикселей
Высота : 552 пикселя
Соотношение сторон : 2,35:1
Режим частоты кадров : Постоянный
Частота кадров : 25,000 кадров/сек
Цветовое пространство : YUV
Субдискретизация насыщенности : 4:2:0
Битовая глубина : 8 бит
Тип развёртки : Прогрессивная
Бит/(Пиксели*Кадры) : 0.255
Размер потока : 2,46 Гбайт (89%)
Библиотека кодирования : x264 core 146 r2538 121396c
Настройки программы : cabac=1 / ref=8 / deblock=1:-1:1 / analyse=0x3:0x133 / me=umh / subme=11 / psy=1 / psy_rd=1.25:0.27 / mixed_ref=1 / me_range=30 / chroma_me=1 / trellis=2 / 8x8dct=1 / cqm=0 / deadzone=21,11 / fast_pskip=1 / chroma_qp_offset=-4 / threads=12 / lookahead_threads=1 / sliced_threads=0 / nr=0 / decimate=0 / interlaced=0 / bluray_compat=0 / constrained_intra=0 / bframes=4 / b_pyramid=2 / b_adapt=1 / b_bias=0 / direct=1 / weightb=1 / open_gop=1 / weightp=2 / keyint=250 / keyint_min=25 / scenecut=40 / intra_refresh=0 / rc_lookahead=40 / rc=abr / mbtree=1 / bitrate=4500 / ratetol=1.0 / qcomp=0.60 / qpmin=0 / qpmax=69 / qpstep=4 / ip_ratio=1.40 / aq=1:1.10
Язык : Russian
Default : Да
Forced : Да
Цветовой диапазон : Limited
Основные цвета : Generic film
Аудио
Идентификатор : 2
Формат : AC-3
Формат/Информация : Audio Coding 3
Расширение режима : CM (complete main)
Параметр Endianness формата : Big
Идентификатор кодека : A_AC3
Продолжительность : 1 ч. 20 м.
Вид битрейта : Постоянный
Битрейт : 448 Кбит/сек
Каналы : 6 каналов
Расположение каналов : Front: L C R, Side: L R, LFE
Частота : 48,0 КГц
Метод сжатия : С потерями
Размер потока : 257 Мбайт (9%)
Default : Да
Forced : Нет



   Похожие торренты   Торрент   Размер 
В этой теме нет новых непрочитанных сообщений. Самая обаятельная и привлекательная (1985) HDTVRip 720р от ExKinoRay

196 | 26

2.87 ГБ

В этой теме нет новых непрочитанных сообщений. Самая обаятельная и привлекательная (1985) HDTVRip

93 | 14

1.37 ГБ

В этой теме нет новых непрочитанных сообщений. Самая обаятельная и привлекательная (1985) HDTVRip от Шкипер

97 | 46

744.19 МБ

В этой теме нет новых непрочитанных сообщений. Самая обаятельная и привлекательная (1985) DVDRip

82 | 24

746.03 МБ

В этой теме нет новых непрочитанных сообщений. Самая обаятельная и привлекательная (1985) DVDRip

127 | 5

1.37 ГБ

В этой теме нет новых непрочитанных сообщений. Самая обаятельная и привлекательная (1985) DVDRip | Реставрация

2122 | 67

1.45 ГБ

В этой теме нет новых непрочитанных сообщений. Самая обаятельная и привлекательная (1985) DVDRip | Реставрация

127 | 11

1.36 ГБ




Вы не можете начинать темы
Вы не можете отвечать на сообщения
Вы не можете редактировать свои сообщения
Вы не можете удалять свои сообщения
Вы не можете добавлять вложения

Перейти:  
Для Мосгорсуда, Роскомнадзора и рекламодателей: mosgorsud-torrent[собачка]yandex.ru
 Вход
ppkBB3cker v.2 © 2008-2014 @ PPK
[ Time : 0.031s | 17 Queries | GZIP : Off ]

Торрент трекер RUTOR.IN, Не можете зайти на rutor.org? Какой новый адрес рутор? Какое зеркало рутор? Не работает rutor.org и зеркала? Тогда наш торрент специально для вас. Rutor.in неофициальное зеркало rutor. В случае если у Вас заблокирован rutor или вдруг Вы не можете на него зайти, то Вы без труда сможете скачать бесплатно и без рекламы последние новинки кино, игр, сериалов и прочего у нас, на Rutor.in. Не нужно использовать прокси, чтобы зайти на рутор, достаточно воспользоваться нашим ресурсом. Все новые фильмы, игры, сериалы, книги и музыка за 2013 и 2014 годы через торрент бесплатно. Скачивайте фильмы в хорошем качестве, игры для пк, xbox, playstation без регистрации. У нас вы найдете новые Зарубежные сериалы и Русские сериалы 2013, 2014, 2015 годов. Оставайтесь с нами, качайте любимые фильмы, игры, сериалы, книги и музыку.