img image001 image001 image001 image001 image001 image001 image001 image001 image001 image001 image001 image001 image001 image001 image001

Planets Sun Sun Sun
Статистика раздачи
Автор: PriZraK | Размер: 1.46 ГБ | Добавлен: 29 окт 2016
Раздают: 4    Качают: 0
Скачать торрент
Скачать торрент
Описание торрента

СообщениеДобавлено: 29 окт 2016 

Страна: СССР
Производство: Мосфильм
Жанр: драма, мелодрама, военный
Год выпуска: 1956
Продолжительность: 01:27:06
Перевод: Не требуется
Cубтитры: нет
Оригинальная аудиодорожка: русский
Режиссер: Григорий Чухрай
В ролях:
Изольда Извицкая, Олег Стриженов, Николай Крючков, Николай Дупак, Георгий Шаповалов, Пётр Любешкин, Лев Ковылин, Юрий Романов, Даниил Нетребин, Асанбек (Арсен) Умуралиев, Анатолий Кокорин, В. Синицын, Кирей Жаркимбаев, Т. Сардарбекова, Вадим Захарченко, Александр Гречаный...
Полный список актёров
Описание:
По рассказу Бориса Лавренёва.
По белым пескам Средней Азии движется отряд красноармейцев. На боевом счету у лучшего стрелка отряда Марютки сорок убитых белогвардейцев. В последней перестрелке взят в плен поручик Говоруха-Отрок. Он станет сорок первым в ее послужном списке, когда они один на один останутся в пространстве песка, неба, моря и сложных чувств...





Источник: DVD9 R5
Качество видео: DVDRip
Формат видео: AVI
Видео: 688x512 (4:3), 25 fps, XviD ~ 2197 kbps avg, 0.249 bit/pixel
Аудио: 48 kHz, Dolby Digital AC3 2.0, 192 kbps
Раздача от:
Общее
Полное имя : Sorok.perviy.1956.DVDRip_[New-team]_by_AVP_Studio.avi
Формат : AVI
Формат/Информация : Audio Video Interleave
Размер файла : 1,46 Гбайт
Продолжительность : 1 ч. 27 м.
Общий поток : 2398 Кбит/сек
Программа кодирования : VirtualDubMod 1.5.10.3 | www.virtualdub-fr.org || (build 2550/release)
Библиотека кодирования : VirtualDubMod build 2550/release
Видео
Идентификатор : 0
Формат : MPEG-4 Visual
Профиль формата : Advanced Simple@L5
Параметр BVOP формата : 1
Параметр QPel формата : Нет
Параметр GMC формата : Без точки перехода
Параметр матрицы формата : Выборочная
Идентификатор кодека : XVID
Идентификатор кодека/Подсказка : XviD
Продолжительность : 1 ч. 27 м.
Битрейт : 2197 Кбит/сек
Ширина : 688 пикселей
Высота : 512 пикселей
Соотношение сторон : 4:3
Частота кадров : 25,000 кадров/сек
Цветовое пространство : YUV
Субдискретизация насыщенности : 4:2:0
Битовая глубина : 8 бит
Тип развёртки : Прогрессивная
Метод сжатия : С потерями
Бит/(Пиксели*Кадры) : 0.249
Размер потока : 1,34 Гбайт (92%)
Библиотека кодирования : XviD 1.2.1 (UTC 2008-12-04)
Аудио
Идентификатор : 1
Формат : AC-3
Формат/Информация : Audio Coding 3
Расширение режима : CM (complete main)
Параметр Endianness формата : Big
Идентификатор кодека : 2000
Продолжительность : 1 ч. 27 м.
Вид битрейта : Постоянный
Битрейт : 192 Кбит/сек
Каналы : 2 канала
Расположение каналов : Front: L R
Частота : 48,0 КГц
Частота кадров : 31,250 кадров/сек (1536 spf)
Метод сжатия : С потерями
Размер потока : 120 Мбайт (8%)
Выравнивание : Разделение по промежуткам
Продолжительность промежутка : 40 мс. (1,00 видеокадр)
Время предзагрузки промежутка : 500 мс





   Похожие торренты   Торрент   Размер 
В этой теме нет новых непрочитанных сообщений. Сорок первый (1956) DVDRip-AVC от New-Team

7 | 0

1.46 ГБ

В этой теме нет новых непрочитанных сообщений. Сорок первый (1956) DVDRip от New-Team

4 | 0

745.27 МБ

В этой теме нет новых непрочитанных сообщений. Сорок первый (1956) DVDRip

13 | 3

1.37 ГБ

В этой теме нет новых непрочитанных сообщений. Сорок первый (1956) DVDRip

15 | 2

1.37 ГБ

В этой теме нет новых непрочитанных сообщений. Сорок первый год: Противостояние / Harjunpaa ja pahan pappi (2010) DVDRip

7 | 9

1.37 ГБ

В этой теме нет новых непрочитанных сообщений. 1941 (Тысяча девятьсот сорок первый) / 1941 (1971) DVDRip

20 | 2

2.19 ГБ

В этой теме нет новых непрочитанных сообщений. В добрый час! (1956) DVDRip от New-Team

2 | 0

1.46 ГБ




Вы не можете начинать темы
Вы не можете отвечать на сообщения
Вы не можете редактировать свои сообщения
Вы не можете удалять свои сообщения
Вы не можете добавлять вложения

Перейти:  
Для Мосгорсуда, Роскомнадзора и рекламодателей: mosgorsud-torrent[собачка]yandex.ru
 Вход
ppkBB3cker v.2 © 2008-2014 @ PPK
[ Time : 1.084s | 20 Queries | GZIP : Off ]

cron