img image001 image001 image001 image001 image001 image001 image001 image001 image001 image001 image001 image001 image001 image001 image001

Planets Sun Sun Sun
Статистика раздачи
Автор: PriZraK | Размер: 2.18 ГБ | Добавлен: 30 окт 2016
Раздают: 40    Качают: 5
Скачать торрент
Скачать торрент
Описание торрента

СообщениеДобавлено: 30 окт 2016 


Информация о фильме
Название: Посредник
Год выхода: 1990
Жанр: Фантастика
Режиссёр: Владимир Потапов
В ролях: Олег Федоров, Олеся Судзиловская, Инара Слуцка, Валерий Сторожик, Андрей Тарасенко, Дмитрий Матвеев, Евгений Редько, Альгис Матуленис
О фильме: На Землю, в маленький городок прибывает десант пришельцев, которые внедряют разумы своих соплемеников в тела людей, полностью подавляя волю последних. Используют они для этого специальные устройства - "Посредники".
Цель оккупантов - подготовить плацдарм и захватить радиообсерваторию, чтобы дать на орбиту сигнал основным силам и кораблям к массовому вторжению...

Страна: СССР
Студия: Студия Горького, ТВК
Продолжительность: 03:37:57
Перевод: Не требуется (оригинальный)
Файл
Формат: avi
Качество: SATRip (DVB)
Видео: XviD, 688х512, 25fps, 1230kbps
Аудио: MPEG Layer 3, 2ch, 48000Hz, 192kbps

General
Complete name : Posrednik.1990.O.SATRip.2100.CurHaJI.avi
Format : AVI
Format/Info : Audio Video Interleave
Format profile : OpenDML
File size : 2.18 GiB
Duration : 3h 37mn
Overall bit rate : 1 432 Kbps
Movie name : Posrednik.1990.O.SATRip.2100.CurHaJI
Writing library : VirtualDub build 35491/release
Video
ID : 0
Format : MPEG-4 Visual
Format profile : Advanced Simple@L5
Format settings, BVOP : 1
Format settings, QPel : No
Format settings, GMC : No warppoints
Format settings, Matrix : Custom
Codec ID : XVID
Codec ID/Hint : XviD
Duration : 3h 37mn
Bit rate : 1 230 Kbps
Width : 688 pixels
Height : 512 pixels
Display aspect ratio : 4:3
Frame rate : 20.000 fps
Color space : YUV
Chroma subsampling : 4:2:0
Bit depth : 8 bits
Scan type : Progressive
Compression mode : Lossy
Bits/(Pixel*Frame) : 0.175
Stream size : 1.87 GiB (86%)
Writing library : XviD 73
Audio
ID : 1
Format : MPEG Audio
Format version : Version 1
Format profile : Layer 3
Codec ID : 55
Codec ID/Hint : MP3
Duration : 3h 37mn
Bit rate mode : Constant
Bit rate : 192 Kbps
Channel(s) : 2 channels
Sampling rate : 48.0 KHz
Compression mode : Lossy
Stream size : 299 MiB (13%)
Alignment : Split accross interleaves
Interleave, duration : 50 ms (1.00 video frame)
Interleave, preload duration : 500 ms
Writing library : LAME3.99r
Encoding settings : -m s -V 4 -q 2 -lowpass 18.6 -b 192


Релиз от:



   Похожие торренты   Торрент   Размер 
В этой теме нет новых непрочитанных сообщений. Посредник (1990) DVDRip

328 | 20

2.04 ГБ

В этой теме нет новых непрочитанных сообщений. Посредник [01-04 из 04] (2013) SATRip

89 | 19

2.01 ГБ

В этой теме нет новых непрочитанных сообщений. Посредник / Грач [01-12 из 12] SATRip от Files-x

169 | 26

8.64 ГБ

В этой теме нет новых непрочитанных сообщений. Футбол. Чемпионат Мира. 1990 год. СССР - Румыния (1990) SATRip от MediaClub

40 | 6

1.45 ГБ

В этой теме нет новых непрочитанных сообщений. Футбол. Чемпионат Мира. 1990 год. Аргентина - СССР (1990) SATRip от MediaClub

74 | 7

1.45 ГБ

В этой теме нет новых непрочитанных сообщений. Футбол. Чемпионат Мира. 1990 год. Камерун - СССР (1990) SATRip от MediaClub

97 | 34

1.45 ГБ

В этой теме нет новых непрочитанных сообщений. Посредник / The go-between (2015) WEBRip | L1

551 | 61

1.37 ГБ




Вы не можете начинать темы
Вы не можете отвечать на сообщения
Вы не можете редактировать свои сообщения
Вы не можете удалять свои сообщения
Вы не можете добавлять вложения

Перейти:  
Для Мосгорсуда, Роскомнадзора и рекламодателей: mosgorsud-torrent[собачка]yandex.ru
 Вход
ppkBB3cker v.2 © 2008-2014 @ PPK
[ Time : 5.265s | 14 Queries | GZIP : Off ]

Торрент трекер RUTOR.IN, Не можете зайти на rutor.org? Какой новый адрес рутор? Какое зеркало рутор? Не работает rutor.org и зеркала? Тогда наш торрент специально для вас. Rutor.in неофициальное зеркало rutor. В случае если у Вас заблокирован rutor или вдруг Вы не можете на него зайти, то Вы без труда сможете скачать бесплатно и без рекламы последние новинки кино, игр, сериалов и прочего у нас, на Rutor.in. Не нужно использовать прокси, чтобы зайти на рутор, достаточно воспользоваться нашим ресурсом. Все новые фильмы, игры, сериалы, книги и музыка за 2013 и 2014 годы через торрент бесплатно. Скачивайте фильмы в хорошем качестве, игры для пк, xbox, playstation без регистрации. У нас вы найдете новые Зарубежные сериалы и Русские сериалы 2013, 2014, 2015 годов. Оставайтесь с нами, качайте любимые фильмы, игры, сериалы, книги и музыку.