img image001 image001 image001 image001 image001 image001 image001 image001 image001 image001 image001 image001 image001 image001 image001

Planets Sun Sun Sun
Статистика раздачи
Автор: PriZraK | Размер: 3.05 ГБ | Добавлен: 30 окт 2016
Раздают: 8    Качают: 1
Скачать торрент
Скачать торрент
Описание торрента

СообщениеДобавлено: 30 окт 2016 


Информация о фильме
Название: Дядя Ваня
Год выхода: 1970
Жанр: Драма
Режиссер: Андрей Кончаловский
В ролях: Иннокентий Смоктуновский, Сергей Бондарчук ст., Ирина Купченко, Ирина Мирошниченко, Владимир Зельдин, Николай Пастухов, Ирина Анисимова-Вульф, Екатерина Мазурова, Владимир Бутенко
О фильме:
Драма русских провинциалов, считающих, что жизнь их не состоялась и растрачена понапрасну. Для дяди Вани это ощущение усугубляется неразделенной любовью к женщине, которую судьба на короткое время забросила в захолустное поместье, где герой и его племянница десятилетиями работают, едва сводя концы с концами…

Страна: СССР
Студия: Мосфильм
Продолжительность: 01:38:39
Перевод: Не требуется
Файл
Качество: HDTVRip 720p
Формат: MKV
Кодек: MPEG-4 AVC Video
Видео: 986x720 (4:3), 25 fps, MPEG-4 AVC ~ 4000 kbps avg, 0.225 bit/pixel
Аудио: AC3, 48 kHz, 6 ch, ~448.00 kbps avg | русский
Субтитры: Отсутствуют
Семпл
Общее
Уникальный идентификатор : 174268390086190331665977911178164609608 (0x831ADEFF46DCE4D4978B8F96A606A248)
Полное имя : D:TorrentsЗавершенныеDjadja Vanja.1970.720p.mkv
Формат : Matroska
Версия формата : Version 4 / Version 2
Размер файла : 3,05 Гбайт
Продолжительность : 1 ч. 38 м.
Общий поток : 4433 Кбит/сек
Название фильма : Дядя Ваня (1970)
Дата кодирования : UTC 2016-10-29 20:21:07
Программа кодирования : mkvmerge v8.3.0 ('Over the Horizon') 64bit
Библиотека кодирования : libebml v1.3.1 + libmatroska v1.4.2
DURATION : 01:38:39.136000000
NUMBER_OF_FRAMES : 184973
NUMBER_OF_BYTES : 331471616
_STATISTICS_WRITING_APP : mkvmerge v8.3.0 ('Over the Horizon') 64bit
_STATISTICS_WRITING_DATE_UTC : 2016-10-29 20:21:07
_STATISTICS_TAGS : BPS DURATION NUMBER_OF_FRAMES NUMBER_OF_BYTES
Видео
Идентификатор : 1
Формат : AVC
Формат/Информация : Advanced Video Codec
Профиль формата : High@L4.1
Параметр CABAC формата : Да
Параметр ReFrames формата : 9 кадров
Идентификатор кодека : V_MPEG4/ISO/AVC
Продолжительность : 1 ч. 38 м.
Битрейт : 4000 Кбит/сек
Ширина : 986 пикселей
Высота : 720 пикселей
Соотношение сторон : 4:3
Режим частоты кадров : Постоянный
Частота кадров : 25,000 кадров/сек
Цветовое пространство : YUV
Субдискретизация насыщенности : 4:2:0
Битовая глубина : 8 бит
Тип развёртки : Прогрессивная
Бит/(Пиксели*Кадры) : 0.225
Размер потока : 2,69 Гбайт (88%)
Заголовок : Djadja Vanja.1970.720p
Библиотека кодирования : x264 core 148 r2705 3f5ed56
Настройки программы : cabac=1 / ref=9 / deblock=1:-1:0 / analyse=0x3:0x133 / me=umh / subme=11 / psy=1 / psy_rd=1.00:0.30 / mixed_ref=1 / me_range=30 / chroma_me=1 / trellis=2 / 8x8dct=1 / cqm=0 / deadzone=21,11 / fast_pskip=1 / chroma_qp_offset=-4 / threads=12 / lookahead_threads=1 / sliced_threads=0 / nr=0 / decimate=0 / interlaced=0 / bluray_compat=0 / constrained_intra=0 / bframes=6 / b_pyramid=2 / b_adapt=1 / b_bias=0 / direct=1 / weightb=1 / open_gop=0 / weightp=2 / keyint=250 / keyint_min=25 / scenecut=40 / intra_refresh=0 / rc_lookahead=40 / rc=abr / mbtree=1 / bitrate=4000 / ratetol=1.0 / qcomp=0.60 / qpmin=0 / qpmax=69 / qpstep=4 / vbv_maxrate=62500 / vbv_bufsize=78125 / nal_hrd=none / filler=0 / ip_ratio=1.40 / aq=1:1.00
Язык : Russian
Default : Да
Forced : Да
Цветовой диапазон : Limited
Основные цвета : BT.709
Характеристики трансфера : BT.709
Коэффициенты матрицы : BT.709
DURATION : 01:38:39.160000000
NUMBER_OF_FRAMES : 147979
NUMBER_OF_BYTES : 2947416420
_STATISTICS_WRITING_APP : mkvmerge v8.3.0 ('Over the Horizon') 64bit
_STATISTICS_WRITING_DATE_UTC : 2016-10-29 20:21:07
_STATISTICS_TAGS : BPS DURATION NUMBER_OF_FRAMES NUMBER_OF_BYTES
Аудио
Идентификатор : 2
Формат : AC-3
Формат/Информация : Audio Coding 3
Расширение режима : CM (complete main)
Параметр Endianness формата : Big
Идентификатор кодека : A_AC3
Продолжительность : 1 ч. 38 м.
Вид битрейта : Постоянный
Битрейт : 448 Кбит/сек
Каналы : 6 каналов
Расположение каналов : Front: L C R, Side: L R, LFE
Частота : 48,0 КГц
Метод сжатия : С потерями
Задержка видео : -5 мс.
Размер потока : 316 Мбайт (10%)
Default : Да
Forced : Нет



   Похожие торренты   Торрент   Размер 
В этой теме нет новых непрочитанных сообщений. Дядя Ваня (1970) HDTVRip от ImperiaFilm

9 | 0

749.03 МБ

В этой теме нет новых непрочитанных сообщений. Дядя Ваня (1970) DVDRip

267 | 12

1.37 ГБ

В этой теме нет новых непрочитанных сообщений. Чехов А.П. - Дядя Ваня (2008) MP3

143 | 8

192.33 МБ

В этой теме нет новых непрочитанных сообщений. Спектакль. Дядя Ваня (2009) TVRip

8 | 5

2.28 ГБ

В этой теме нет новых непрочитанных сообщений. Дядя / Uncle [S01] (2014) HDTVRip | Sub

22 | 23

1.55 ГБ

В этой теме нет новых непрочитанных сообщений. Дядя и зефир / Ojisan to Marshmallow [TV] [01 из 12] (2016) HDTVRip 720p | AniFilm

12 | 1

163.98 МБ

В этой теме нет новых непрочитанных сообщений. Дядя и зефир / Ojisan to Marshmallow [TV] [01 из 12] (2016) HDTVRip 720p | AniFilm

28 | 0

213.68 МБ




Вы не можете начинать темы
Вы не можете отвечать на сообщения
Вы не можете редактировать свои сообщения
Вы не можете удалять свои сообщения
Вы не можете добавлять вложения

Перейти:  
Для Мосгорсуда, Роскомнадзора и рекламодателей: mosgorsud-torrent[собачка]yandex.ru
 Вход
ppkBB3cker v.2 © 2008-2014 @ PPK
[ Time : 0.039s | 15 Queries | GZIP : Off ]

Торрент трекер RUTOR.IN, Не можете зайти на rutor.org? Какой новый адрес рутор? Какое зеркало рутор? Не работает rutor.org и зеркала? Тогда наш торрент специально для вас. Rutor.in неофициальное зеркало rutor. В случае если у Вас заблокирован rutor или вдруг Вы не можете на него зайти, то Вы без труда сможете скачать бесплатно и без рекламы последние новинки кино, игр, сериалов и прочего у нас, на Rutor.in. Не нужно использовать прокси, чтобы зайти на рутор, достаточно воспользоваться нашим ресурсом. Все новые фильмы, игры, сериалы, книги и музыка за 2013 и 2014 годы через торрент бесплатно. Скачивайте фильмы в хорошем качестве, игры для пк, xbox, playstation без регистрации. У нас вы найдете новые Зарубежные сериалы и Русские сериалы 2013, 2014, 2015 годов. Оставайтесь с нами, качайте любимые фильмы, игры, сериалы, книги и музыку.
cron