img image001 image001 image001 image001 image001 image001 image001 image001 image001 image001 image001 image001 image001 image001 image001

Planets Sun Sun Sun
Статистика раздачи
Автор: PriZraK | Размер: 1.46 ГБ | Добавлен: 31 окт 2016
Раздают: 23    Качают: 6
Скачать торрент
Скачать торрент
Описание торрента

СообщениеДобавлено: 31 окт 2016 

Страна: СССР
Производство: Киностудия им.Горького
Жанр: драма, мелодрама
Год выпуска: 1956
Продолжительность: 01:32:56
Перевод: Не требуется
Cубтитры: нет
Оригинальная аудиодорожка: русский
Режиссер: Виктор Эйсымонт
В ролях:
Леонид Харитонов, Леонид Давыдов-Субоч, Людмила Чернышёва, Виктор Хохряков, Наталья Малявина, Олег Анофриев, Олег Голубицкий, Галина Самохина, Лариса Нарышкина, Сергей Витомсков...
Полный список актёров
Описание:
По одноименной пьесе В.Розова.
Повесть о выпускниках школы 50-х годов, пытающихся - в меру своих привязанностей и увлечений - выбрать свой собственный путь в жизни. В Москву из далекой сибирской деревни приезжает поступать в институт Алексей. Он останавливается у родственников, в профессорской семье. После провала на приемных экзамена он уезжает домой вместе с сыном профессора Андреем, еще не до конца решившим, чем ему заниматься.





Источник: DVD9 R5
Качество видео: DVDRip
Формат видео: AVI
Видео: 704x528 (4:3), 25 fps, XviD ~ 2048 kbps avg, 0.220 bit/pixel
Аудио: 48 kHz, Dolby Digital AC3 2.0, 192 kbps
Раздача от:
Общее
Полное имя : V.dobriy.chas!1956.DVDRip_[New-team]_by_AVP_Studio.avi
Формат : AVI
Формат/Информация : Audio Video Interleave
Размер файла : 1,46 Гбайт
Продолжительность : 1 ч. 32 м.
Общий поток : 2250 Кбит/сек
Программа кодирования : VirtualDubMod 1.5.10.3 | www.virtualdub-fr.org || (build 2550/release)
Библиотека кодирования : VirtualDubMod build 2550/release
Видео
Идентификатор : 0
Формат : MPEG-4 Visual
Профиль формата : Advanced Simple@L5
Параметр BVOP формата : 1
Параметр QPel формата : Нет
Параметр GMC формата : Без точки перехода
Параметр матрицы формата : Выборочная
Идентификатор кодека : XVID
Идентификатор кодека/Подсказка : XviD
Продолжительность : 1 ч. 32 м.
Битрейт : 2048 Кбит/сек
Ширина : 704 пикселя
Высота : 528 пикселей
Соотношение сторон : 4:3
Частота кадров : 25,000 кадров/сек
Цветовое пространство : YUV
Субдискретизация насыщенности : 4:2:0
Битовая глубина : 8 бит
Тип развёртки : Прогрессивная
Метод сжатия : С потерями
Бит/(Пиксели*Кадры) : 0.220
Размер потока : 1,33 Гбайт (91%)
Библиотека кодирования : XviD 1.2.1 (UTC 2008-12-04)
Аудио
Идентификатор : 1
Формат : AC-3
Формат/Информация : Audio Coding 3
Расширение режима : CM (complete main)
Параметр Endianness формата : Big
Идентификатор кодека : 2000
Продолжительность : 1 ч. 32 м.
Вид битрейта : Постоянный
Битрейт : 192 Кбит/сек
Каналы : 2 канала
Расположение каналов : Front: L R
Частота : 48,0 КГц
Частота кадров : 31,250 кадров/сек (1536 spf)
Метод сжатия : С потерями
Размер потока : 128 Мбайт (9%)
Выравнивание : Разделение по промежуткам
Продолжительность промежутка : 40 мс. (1,00 видеокадр)
Время предзагрузки промежутка : 500 мс





   Похожие торренты   Торрент   Размер 
В этой теме нет новых непрочитанных сообщений. В добрый час! (1956) DVDRip-AVC от New-Team

16 | 3

1.46 ГБ

В этой теме нет новых непрочитанных сообщений. В добрый час! (1956) DVDRip от New-Team

10 | 6

745.5 МБ

В этой теме нет новых непрочитанных сообщений. В добрый час! (1956) DVDRip от Кинорадиомагия

203 | 33

1.37 ГБ

В этой теме нет новых непрочитанных сообщений. День добрый, улыбка! / Bonjour sourire! (1956) DVDRip - Zona-X

0 | 4

1.37 ГБ

В этой теме нет новых непрочитанных сообщений. Из-за чести (1956) DVDRip-AVC от New-Team

10 | 1

1.09 ГБ

В этой теме нет новых непрочитанных сообщений. Она Вас любит (1956) DVDRip от New-Team

8 | 6

1.09 ГБ

В этой теме нет новых непрочитанных сообщений. Из-за чести (1956) DVDRip от New-Team

4 | 4

745.62 МБ




Вы не можете начинать темы
Вы не можете отвечать на сообщения
Вы не можете редактировать свои сообщения
Вы не можете удалять свои сообщения
Вы не можете добавлять вложения

Перейти:  
Для Мосгорсуда, Роскомнадзора и рекламодателей: mosgorsud-torrent[собачка]yandex.ru
 Вход
ppkBB3cker v.2 © 2008-2014 @ PPK
[ Time : 0.853s | 15 Queries | GZIP : On ]

Торрент трекер RUTOR.IN, Не можете зайти на rutor.org? Какой новый адрес рутор? Какое зеркало рутор? Не работает rutor.org и зеркала? Тогда наш торрент специально для вас. Rutor.in неофициальное зеркало rutor. В случае если у Вас заблокирован rutor или вдруг Вы не можете на него зайти, то Вы без труда сможете скачать бесплатно и без рекламы последние новинки кино, игр, сериалов и прочего у нас, на Rutor.in. Не нужно использовать прокси, чтобы зайти на рутор, достаточно воспользоваться нашим ресурсом. Все новые фильмы, игры, сериалы, книги и музыка за 2013 и 2014 годы через торрент бесплатно. Скачивайте фильмы в хорошем качестве, игры для пк, xbox, playstation без регистрации. У нас вы найдете новые Зарубежные сериалы и Русские сериалы 2013, 2014, 2015 годов. Оставайтесь с нами, качайте любимые фильмы, игры, сериалы, книги и музыку.