img image001 image001 image001 image001 image001 image001 image001 image001 image001 image001 image001 image001 image001 image001 image001

Planets Sun Sun Sun
Статистика раздачи
Автор: PriZraK | Размер: 1.17 ГБ | Добавлен: 01 ноя 2016
Раздают: 595    Качают: 35
Скачать торрент
Скачать торрент
Описание торрента

СообщениеДобавлено: 01 ноя 2016 

Информация о фильме
Название: Дуэлянт
Год выпуска: 2016
Страна: Россия
Жанр: драма

Перевод: Оригинал [iTunes]
Продолжительность: 01:44:43

Режиссер: Алексей Мизгирёв
В ролях: Пётр Фёдоров (Яковлев / Колычев), Владимир Машков (граф Беклемишев), Юлия Хлынина (Марфа Тучкова), Франциска Петри (великая княгиня Александра Иосифовна), Мартин Вуттке (немецкий барон), Сергей Гармаш (однорукий дворянин), Павел Табаков (князь Тучков), Юрий Колокольников (Басаргин, кредитор графа), Александр Яценко (Яковлев младший), Юрий Кузнецов (камердинер), Дмитрий Куличков (Чичагов), Павел Кузьмин (капитан Липранди)


Описание:
В центре сюжета профессиональный дуэлянт, который зарабатывает на жизнь, участвуя в поединках за других людей.

Рейтинг:


Качество: WEB-DLRip-AVC
Формат: MKV
Видео: AVC, 1024x432 (2.40:1), 1214 kbps, 25 fps, 0,110 bpp
Аудио: AC3 / 2.0 / 48 kHz / 384 kbps /
Семпл


Релиз от: Rip by


General
Unique ID : 254278776781053126399635806757112666869 (0xBF4C4FA07ADA1DA48DACA416141A5AF5)
Complete name : D:Dy3lHyat.2016.WEB-DLRip-AVC.by.White Smoke.R.G.Resident.mkv
Format : Matroska
Format version : Version 4 / Version 2
File size : 1.17 GiB
Duration : 1 h 44 min
Overall bit rate : 1 599 kb/s
Movie name : Dy3lHyat.2016.WEB-DLRip-AVC.by.White Smoke.R.G.Resident.mkv
Encoded date : UTC 2016-10-31 07:36:31
Writing application : mkvmerge v6.8.0 ('Theme for Great Cities') 64bit built on Mar 2 2014 21:34:26
Writing library : libebml v1.3.0 + libmatroska v1.4.1
Video
ID : 1
Format : AVC
Format/Info : Advanced Video Codec
Format profile : High@L4.1
Format settings, CABAC : Yes
Format settings, ReFrames : 12 frames
Codec ID : V_MPEG4/ISO/AVC
Duration : 1 h 44 min
Bit rate : 1 214 kb/s
Width : 1 024 pixels
Height : 432 pixels
Display aspect ratio : 2.40:1
Frame rate mode : Constant
Frame rate : 25.000 FPS
Color space : YUV
Chroma subsampling : 4:2:0
Bit depth : 8 bits
Scan type : Progressive
Bits/(Pixel*Frame) : 0.110
Stream size : 886 MiB (74%)
Writing library : x264 core 148 r2638 7599210
Encoding settings : cabac=1 / ref=12 / deblock=1:-3:-3 / analyse=0x3:0x113 / me=hex / subme=9 / psy=1 / psy_rd=1.00:0.00 / mixed_ref=1 / me_range=16 / chroma_me=1 / trellis=2 / 8x8dct=1 / cqm=0 / deadzone=21,11 / fast_pskip=1 / chroma_qp_offset=-2 / threads=6 / lookahead_threads=1 / sliced_threads=0 / nr=0 / decimate=1 / interlaced=0 / bluray_compat=0 / constrained_intra=0 / bframes=12 / b_pyramid=2 / b_adapt=2 / b_bias=10 / direct=1 / weightb=1 / open_gop=0 / weightp=2 / keyint=250 / keyint_min=25 / scenecut=40 / intra_refresh=0 / rc_lookahead=40 / rc=2pass / mbtree=1 / bitrate=1214 / ratetol=1.0 / qcomp=0.85 / qpmin=0 / qpmax=69 / qpstep=4 / cplxblur=20.0 / qblur=0.5 / ip_ratio=1.40 / aq=1:1.00
Language : English
Default : Yes
Forced : No
Audio
ID : 2
Format : AC-3
Format/Info : Audio Coding 3
Mode extension : CM (complete main)
Format settings, Endianness : Big
Codec ID : A_AC3
Duration : 1 h 44 min
Bit rate mode : Constant
Bit rate : 384 kb/s
Channel(s) : 2 channels
Channel positions : Front: L R
Sampling rate : 48.0 kHz
Frame rate : 31.250 FPS (1536 spf)
Compression mode : Lossy
Stream size : 288 MiB (24%)
Default : Yes
Forced : No




   Похожие торренты   Торрент   Размер 
В этой теме нет новых непрочитанных сообщений. Дуэлянт (2016) WEB-DLRip | iTunes

17127 | 789

1.45 ГБ

В этой теме нет новых непрочитанных сообщений. Дуэлянт (2016) WEB-DLRip-AVC от k.e.n | iTunes

3259 | 180

2.18 ГБ

В этой теме нет новых непрочитанных сообщений. Дуэлянт (2016) WEB-DLRip от Generalfilm | КПК | iTunes

286 | 24

435.88 МБ

В этой теме нет новых непрочитанных сообщений. Дуэлянт (2016) WEB-DLRip от Scarabey | iTunes

10314 | 520

1.45 ГБ

В этой теме нет новых непрочитанных сообщений. Дуэлянт (2016) WEB-DLRip от MegaPeer | iTunes

279 | 4

747.55 МБ

В этой теме нет новых непрочитанных сообщений. Дуэлянт (2016) WEB-DLRip-AVC от Dalemake | iTunes

994 | 69

1.46 ГБ

В этой теме нет новых непрочитанных сообщений. Дуэлянт (2016) WEB-DLRip от Scarabey | iTunes

1318 | 32

746.62 МБ




Вы не можете начинать темы
Вы не можете отвечать на сообщения
Вы не можете редактировать свои сообщения
Вы не можете удалять свои сообщения
Вы не можете добавлять вложения

Перейти:  
Для Мосгорсуда, Роскомнадзора и рекламодателей: mosgorsud-torrent[собачка]yandex.ru
 Вход
ppkBB3cker v.2 © 2008-2014 @ PPK
[ Time : 0.043s | 16 Queries | GZIP : On ]

Торрент трекер RUTOR.IN, Не можете зайти на rutor.org? Какой новый адрес рутор? Какое зеркало рутор? Не работает rutor.org и зеркала? Тогда наш торрент специально для вас. Rutor.in неофициальное зеркало rutor. В случае если у Вас заблокирован rutor или вдруг Вы не можете на него зайти, то Вы без труда сможете скачать бесплатно и без рекламы последние новинки кино, игр, сериалов и прочего у нас, на Rutor.in. Не нужно использовать прокси, чтобы зайти на рутор, достаточно воспользоваться нашим ресурсом. Все новые фильмы, игры, сериалы, книги и музыка за 2013 и 2014 годы через торрент бесплатно. Скачивайте фильмы в хорошем качестве, игры для пк, xbox, playstation без регистрации. У нас вы найдете новые Зарубежные сериалы и Русские сериалы 2013, 2014, 2015 годов. Оставайтесь с нами, качайте любимые фильмы, игры, сериалы, книги и музыку.