img image001 image001 image001 image001 image001 image001 image001 image001 image001 image001 image001 image001 image001 image001 image001

Planets Sun Sun Sun
Статистика раздачи
Автор: PriZraK | Размер: 744.25 МБ | Добавлен: 05 ноя 2016
Раздают: 17    Качают: 4
Скачать торрент
Скачать торрент
Описание торрента

СообщениеДобавлено: 05 ноя 2016 

Страна: СССР
Производство: Мосфильм
Жанр: музыкальный фильм, комедия
Год выпуска: 1956
Продолжительность: 00:53:16
Перевод: Не требуется
Cубтитры: нет
Оригинальная аудиодорожка: русский
Режиссер: Татьяна Березанцева, Антон Шароев
В ролях:
Максим Греков, Эмилия Мильтон, Юрий Лоран, Аркадий Цинман, Зана Занони, Леонид Пирогов, Виктория Чаева, Раиса Максимова, Валентин Кулик, Георгий Абрамов, Даниил Демьянов...
Полный список актёров
Описание:
По опере Дж. Пуччини "Джанни Скикки". Средневековой Флоренции в 1299 году. Богатый дядюшка Буозо Донати умер, и его бедные родственники, толпившиеся вокруг ложа смерти, находят завещание — все оставлено монахам. И тогда они зовут некого Джанни Скикки — пожилого итальянского мошенника и проходимца. У него есть дочь Лауретта, влюбленная в Ринуччо. Он прячет тело умершего дядюшки, гримируется под него и голосом покойника зовет нотариуса. Все родственники в восторге ждут: сейчас завещание будет переписано в их пользу. Нотариус слышит с полутемного ложа слова "дядюшки": "Все свое имущество я завещаю… я завещаю… я завещаю своему любимому другу Джанни Скикки!". Разбогатевший Скикки дает дочери Лауретте приданое и она, наконец, может выйти замуж за своего любимого — Ринуччо (одного из многочисленных родственников покойного, единственного из них, кто получает выгоду от происшедшего)...





Источник: DVB
Качество видео: SATRip-AVC
Формат видео: MKV
Видео: 704->762x572 (4:3), 25 fps, H264 ~ 1760 kbps avg, 0.173 bit/pixel
Аудио: 48 kHz, Dolby Digital AC3 2.0, 192 kbps
Раздача от:
Общее
Полное имя : Kak.Dzhanni.popal.v.ad.1956. SATRip-AVC_[New-team]_by_AVP_Studio.mkv
Формат : Matroska
Версия формата : Version 2
Размер файла : 744 Мбайт
Продолжительность : 53 м. 15 с.
Общий поток : 1953 Кбит/сек
Дата кодирования : UTC 2016-11-01 10:38:06
Программа кодирования : mkvmerge v6.1.0 ('Old Devil') built on Mar 4 2013 09:10:42
Библиотека кодирования : libebml v1.3.0 + libmatroska v1.4.0
Видео
Идентификатор : 1
Формат : AVC
Формат/Информация : Advanced Video Codec
Профиль формата : High@L4.1
Параметр CABAC формата : Да
Параметр ReFrames формата : 10 кадров
Идентификатор кодека : V_MPEG4/ISO/AVC
Продолжительность : 53 м. 15 с.
Битрейт : 1760 Кбит/сек
Ширина : 712 пикселей
Высота : 572 пикселя
Соотношение сторон : 4:3
Режим частоты кадров : Постоянный
Частота кадров : 25,000 кадров/сек
Цветовое пространство : YUV
Субдискретизация насыщенности : 4:2:0
Битовая глубина : 8 бит
Тип развёртки : Прогрессивная
Бит/(Пиксели*Кадры) : 0.173
Размер потока : 656 Мбайт (88%)
Библиотека кодирования : x264 core 148 r2597 e86f3a1
Настройки программы : cabac=1 / ref=10 / deblock=1:-2:-1 / analyse=0x3:0x113 / me=umh / subme=10 / psy=1 / psy_rd=1.00:0.00 / mixed_ref=1 / me_range=32 / chroma_me=1 / trellis=2 / 8x8dct=1 / cqm=0 / deadzone=21,11 / fast_pskip=1 / chroma_qp_offset=-2 / threads=6 / lookahead_threads=1 / sliced_threads=0 / nr=0 / decimate=0 / interlaced=0 / bluray_compat=0 / constrained_intra=0 / bframes=8 / b_pyramid=2 / b_adapt=2 / b_bias=0 / direct=3 / weightb=1 / open_gop=0 / weightp=2 / keyint=250 / keyint_min=25 / scenecut=40 / intra_refresh=0 / rc=2pass / mbtree=0 / bitrate=1760 / ratetol=1.0 / qcomp=0.60 / qpmin=0 / qpmax=69 / qpstep=4 / cplxblur=20.0 / qblur=0.5 / ip_ratio=1.40 / pb_ratio=1.30 / aq=1:1.00
Default : Да
Forced : Нет
Аудио
Идентификатор : 2
Формат : AC-3
Формат/Информация : Audio Coding 3
Расширение режима : CM (complete main)
Параметр Endianness формата : Big
Идентификатор кодека : A_AC3
Продолжительность : 53 м. 15 с.
Вид битрейта : Постоянный
Битрейт : 192 Кбит/сек
Каналы : 2 канала
Расположение каналов : Front: L R
Частота : 48,0 КГц
Частота кадров : 31,250 кадров/сек (1536 spf)
Битовая глубина : 16 бит
Метод сжатия : С потерями
Размер потока : 73,1 Мбайт (10%)
Default : Да
Forced : Нет





   Похожие торренты   Торрент   Размер 
В этой теме нет новых непрочитанных сообщений. Как Джанни попал в ад (1956) SATRip от New-Team

4 | 0

745.3 МБ

В этой теме нет новых непрочитанных сообщений. Не та, так эта (1956) SATRip-AVC от New-Team

0 | 0

1.09 ГБ

В этой теме нет новых непрочитанных сообщений. Не та, так эта (1956) SATRip от New-Team

0 | 0

1.09 ГБ

В этой теме нет новых непрочитанных сообщений. Поэт (1956) SATRip от New-Team

9 | 0

1.09 ГБ

В этой теме нет новых непрочитанных сообщений. Искатели (1956) SATRip-AVC от New-Team

21 | 3

1.09 ГБ

В этой теме нет новых непрочитанных сообщений. Две жизни (1956) SATRip от New-Team

10 | 0

745.21 МБ

В этой теме нет новых непрочитанных сообщений. Авиценна (1956) SATRip от New-Team

19 | 0

1.09 ГБ




Вы не можете начинать темы
Вы не можете отвечать на сообщения
Вы не можете редактировать свои сообщения
Вы не можете удалять свои сообщения
Вы не можете добавлять вложения

Перейти:  
Для Мосгорсуда, Роскомнадзора и рекламодателей: mosgorsud-torrent[собачка]yandex.ru
 Вход
ppkBB3cker v.2 © 2008-2014 @ PPK
[ Time : 0.053s | 17 Queries | GZIP : Off ]

Торрент трекер RUTOR.IN, Не можете зайти на rutor.org? Какой новый адрес рутор? Какое зеркало рутор? Не работает rutor.org и зеркала? Тогда наш торрент специально для вас. Rutor.in неофициальное зеркало rutor. В случае если у Вас заблокирован rutor или вдруг Вы не можете на него зайти, то Вы без труда сможете скачать бесплатно и без рекламы последние новинки кино, игр, сериалов и прочего у нас, на Rutor.in. Не нужно использовать прокси, чтобы зайти на рутор, достаточно воспользоваться нашим ресурсом. Все новые фильмы, игры, сериалы, книги и музыка за 2013 и 2014 годы через торрент бесплатно. Скачивайте фильмы в хорошем качестве, игры для пк, xbox, playstation без регистрации. У нас вы найдете новые Зарубежные сериалы и Русские сериалы 2013, 2014, 2015 годов. Оставайтесь с нами, качайте любимые фильмы, игры, сериалы, книги и музыку.