img image001 image001 image001 image001 image001 image001 image001 image001 image001 image001 image001 image001 image001 image001 image001

Planets Sun Sun Sun
Статистика раздачи
Автор: PriZraK | Размер: 744.96 МБ | Добавлен: 06 ноя 2016
Раздают: 3    Качают: 0
Скачать торрент
Скачать торрент
Описание торрента

СообщениеДобавлено: 06 ноя 2016 


Информация о фильме
Название: Семен Дежнев
Год выхода: 1983
Жанр: Исторический, биографический
Режиссёр: Николай Гусаров
В ролях: Алексей Булдаков, Леонид Неведомский, Виктор Григорюк, Маргарита Борисова, Иван Краско, Ольга Сирина, Николай Гусаров, Геннадий Юхтин, Степан Емельянов, Юрий Новохижин, Валерий Порошин, Николай Шевкуненко, Коля Ушницкий, Болот Бейшеналиев, Дмитрий Шилко, Виктор Мамаев, Юрий Алексеев, Олег Корчиков
О фильме: Историко-биографическая картина о замечательном руском путешественнике ХVII века, мореходе-первопроходце Семене Дежневе, первооткрывателе новых сибирских земель, который преодолевая неисчеслимые лишения, морем доплыл от Каменного пояса (Урала) до конечной точки азиатского материка (ныне мыс С.Дежнева), обнаружил пролив между Азией и Северной Америкой за 80 лет до открытия его В.Берингом. В фильме рассказывается о государственной деятельности отважного мореплавателя в Сибири и на Дальнем Востоке...

Страна: СССР
Студия: Свердловская киностудия
Продолжительность: 01:16:00
Перевод: Не требуется (оригинальный)
Файл
Формат: avi
Качество: SATRip (DVB)
Видео: XviD, 640х496, 25fps, 1233kbps
Аудио: MPEG Layer 3, 2ch, 48000Hz, 128kbps

General
Complete name : Semen.Dezhnev.1983.O.SATRip.700.CurHaJI.avi
Format : AVI
Format/Info : Audio Video Interleave
File size : 745 MiB
Duration : 1h 16mn
Overall bit rate : 1 370 Kbps
Movie name : Semen.Dezhnev.1983.O.SATRip.700.CurHaJI
Writing application : VirtualDubMod 1.5.10.3 | www.virtualdub-fr.org || (build 2550/release)
Writing library : VirtualDub build 35491/release
Video
ID : 0
Format : MPEG-4 Visual
Format profile : Advanced Simple@L5
Format settings, BVOP : 2
Format settings, QPel : No
Format settings, GMC : No warppoints
Format settings, Matrix : Custom
Codec ID : XVID
Codec ID/Hint : XviD
Duration : 1h 16mn
Bit rate : 1 233 Kbps
Width : 640 pixels
Height : 496 pixels
Display aspect ratio : 1.290
Frame rate : 25.000 fps
Color space : YUV
Chroma subsampling : 4:2:0
Bit depth : 8 bits
Scan type : Progressive
Compression mode : Lossy
Bits/(Pixel*Frame) : 0.155
Stream size : 670 MiB (90%)
Writing library : XviD 73
Audio
ID : 1
Format : MPEG Audio
Format version : Version 1
Format profile : Layer 3
Codec ID : 55
Codec ID/Hint : MP3
Duration : 1h 16mn
Bit rate mode : Constant
Bit rate : 128 Kbps
Channel(s) : 1 channel
Sampling rate : 48.0 KHz
Compression mode : Lossy
Stream size : 69.6 MiB (9%)
Alignment : Aligned on interleaves
Interleave, duration : 40 ms (1.00 video frame)
Interleave, preload duration : 504 ms
Writing library : LAME3.99r
Encoding settings : -m m -V 4 -q 2 -lowpass 20.5 -b 128


Релиз от:



   Похожие торренты   Торрент   Размер 
В этой теме нет новых непрочитанных сообщений. Семён Слепаков - 21 песня (2010-2011) SATRip

40 | 4

962.62 МБ

В этой теме нет новых непрочитанных сообщений. Семён Альтов - 100 причин для смеха (2008) SATRip

19 | 11

2.36 ГБ

В этой теме нет новых непрочитанных сообщений. Семен Альтов - 100 причин для смеха! - Избраное (2008) SATRip от Brazzass

94 | 3

1.36 ГБ

В этой теме нет новых непрочитанных сообщений. Новый Comedy Club - Семен Слепаков (2011) SATRip от xottabi4 | Нарезка

5 | 5

242.63 МБ

В этой теме нет новых непрочитанных сообщений. Новый Comedy Club - Семен Слепаков. Сборник 2 (2011) SATRip от xottabi4 | Нарезка

2 | 5

246.58 МБ

В этой теме нет новых непрочитанных сообщений. Звездное притяжение / Отто Шмидт / Павел Сухой / Семен Косберг / Борис Кит (2007) SATRip от AND03AND

12 | 2

739.72 МБ

В этой теме нет новых непрочитанных сообщений. Семён Винокур - Шаг навстречу [01-03] (2011) MP3

16 | 8

99.55 МБ




Вы не можете начинать темы
Вы не можете отвечать на сообщения
Вы не можете редактировать свои сообщения
Вы не можете удалять свои сообщения
Вы не можете добавлять вложения

Перейти:  
Для Мосгорсуда, Роскомнадзора и рекламодателей: mosgorsud-torrent[собачка]yandex.ru
 Вход
ppkBB3cker v.2 © 2008-2014 @ PPK
[ Time : 0.485s | 14 Queries | GZIP : Off ]

Торрент трекер RUTOR.IN, Не можете зайти на rutor.org? Какой новый адрес рутор? Какое зеркало рутор? Не работает rutor.org и зеркала? Тогда наш торрент специально для вас. Rutor.in неофициальное зеркало rutor. В случае если у Вас заблокирован rutor или вдруг Вы не можете на него зайти, то Вы без труда сможете скачать бесплатно и без рекламы последние новинки кино, игр, сериалов и прочего у нас, на Rutor.in. Не нужно использовать прокси, чтобы зайти на рутор, достаточно воспользоваться нашим ресурсом. Все новые фильмы, игры, сериалы, книги и музыка за 2013 и 2014 годы через торрент бесплатно. Скачивайте фильмы в хорошем качестве, игры для пк, xbox, playstation без регистрации. У нас вы найдете новые Зарубежные сериалы и Русские сериалы 2013, 2014, 2015 годов. Оставайтесь с нами, качайте любимые фильмы, игры, сериалы, книги и музыку.