img image001 image001 image001 image001 image001 image001 image001 image001 image001 image001 image001 image001 image001 image001 image001

Planets Sun Sun Sun
Статистика раздачи
Автор: PriZraK | Размер: 1.09 ГБ | Добавлен: 08 ноя 2016
Раздают: 5    Качают: 6
Скачать торрент
Скачать торрент
Описание торрента

СообщениеДобавлено: 08 ноя 2016 

Страна: СССР
Производство: Мосфильм
Жанр: драма, военный
Год выпуска: 1956
Продолжительность: 01:30:05
Перевод: Не требуется
Cубтитры: нет
Оригинальная аудиодорожка: русский
Режиссер: Захар Аграненко, Эдуард Тиссэ
В ролях:
Василий Макаров, Владимир Емельянов, Николай Крючков, Анатолий Чемодуров, Валентина Серова, Лидия Сухаревская, Антонина Богданова, Лариса Нарышкина, Геннадий Сайфулин, Надя Фандикова, Феликс Яворский, Владимир Монахов (II), Евгений Михайлов (II), Михаил Дадыко, Леонид Чубаров, Юрий Аверин...
Полный список актёров
Описание:
Фильм посвящен беспримерному подвигу защитников Брестской крепости. Время действия: 22 июня - 20 июля 1941 года, первые, самые страшные дни Великой Отечественной войны. В ленте отражен всенародный патриотический подъем в дни фашистского нашествия, самоотверженность и сплоченность советских людей перед лицом врага.





Источник: DVD5 R5
Качество видео: DVDRip
Формат видео: AVI
Видео: 688x512 (4:3), 25 fps, XviD ~ 1528 kbps avg, 0.173 bit/pixel
Аудио: 48 kHz, Dolby Digital AC3 2.0, 192 kbps
Раздача от:
Общее
Полное имя : Bessmertnyi.garnizon.1956.DVDRip_[New-team]_by_AVP_Studio.avi
Формат : AVI
Формат/Информация : Audio Video Interleave
Размер файла : 1,09 Гбайт
Продолжительность : 1 ч. 30 м.
Общий поток : 1729 Кбит/сек
Программа кодирования : VirtualDubMod 1.5.10.3 | www.virtualdub-fr.org || (build 2550/release)
Библиотека кодирования : VirtualDubMod build 2550/release
Видео
Идентификатор : 0
Формат : MPEG-4 Visual
Профиль формата : Advanced Simple@L5
Параметр BVOP формата : 1
Параметр QPel формата : Нет
Параметр GMC формата : Без точки перехода
Параметр матрицы формата : Выборочная
Идентификатор кодека : XVID
Идентификатор кодека/Подсказка : XviD
Продолжительность : 1 ч. 30 м.
Битрейт : 1528 Кбит/сек
Ширина : 688 пикселей
Высота : 512 пикселей
Соотношение сторон : 4:3
Частота кадров : 25,000 кадров/сек
Цветовое пространство : YUV
Субдискретизация насыщенности : 4:2:0
Битовая глубина : 8 бит
Тип развёртки : Прогрессивная
Метод сжатия : С потерями
Бит/(Пиксели*Кадры) : 0.173
Размер потока : 984 Мбайт (88%)
Библиотека кодирования : XviD 1.2.1 (UTC 2008-12-04)
Аудио
Идентификатор : 1
Формат : AC-3
Формат/Информация : Audio Coding 3
Расширение режима : CM (complete main)
Параметр Endianness формата : Big
Идентификатор кодека : 2000
Продолжительность : 1 ч. 30 м.
Вид битрейта : Постоянный
Битрейт : 192 Кбит/сек
Каналы : 2 канала
Расположение каналов : Front: L R
Частота : 48,0 КГц
Частота кадров : 31,250 кадров/сек (1536 spf)
Битовая глубина : 16 бит
Метод сжатия : С потерями
Размер потока : 124 Мбайт (11%)
Выравнивание : Разделение по промежуткам
Продолжительность промежутка : 40 мс. (1,00 видеокадр)
Время предзагрузки промежутка : 500 мс





   Похожие торренты   Торрент   Размер 
В этой теме нет новых непрочитанных сообщений. Бессмертный гарнизон (1956) DVDRip-AVC от New-Team

39 | 9

1.09 ГБ

В этой теме нет новых непрочитанных сообщений. Бессмертный гарнизон (1956) DVDRip от New-Team

18 | 3

744.21 МБ

В этой теме нет новых непрочитанных сообщений. Бессмертный гарнизон (1956) DVDRip by гаврила

308 | 20

1.37 ГБ

В этой теме нет новых непрочитанных сообщений. Бессмертный гарнизон (1956) DVDRip от AndrewWhite

78 | 12

699.77 МБ

В этой теме нет новых непрочитанных сообщений. Бессмертный гарнизон (1956) DVDRip-AVC от ExKinoRay

182 | 9

1.65 ГБ

В этой теме нет новых непрочитанных сообщений. Кащей Бессмертный (1944) DVDRip от New-Team

27 | 5

1.09 ГБ

В этой теме нет новых непрочитанных сообщений. Кащей Бессмертный (1944) DVDRip от New-Team

10 | 8

743.91 МБ




Вы не можете начинать темы
Вы не можете отвечать на сообщения
Вы не можете редактировать свои сообщения
Вы не можете удалять свои сообщения
Вы не можете добавлять вложения

Перейти:  
Для Мосгорсуда, Роскомнадзора и рекламодателей: mosgorsud-torrent[собачка]yandex.ru
 Вход
ppkBB3cker v.2 © 2008-2014 @ PPK
[ Time : 0.048s | 15 Queries | GZIP : On ]

Торрент трекер RUTOR.IN, Не можете зайти на rutor.org? Какой новый адрес рутор? Какое зеркало рутор? Не работает rutor.org и зеркала? Тогда наш торрент специально для вас. Rutor.in неофициальное зеркало rutor. В случае если у Вас заблокирован rutor или вдруг Вы не можете на него зайти, то Вы без труда сможете скачать бесплатно и без рекламы последние новинки кино, игр, сериалов и прочего у нас, на Rutor.in. Не нужно использовать прокси, чтобы зайти на рутор, достаточно воспользоваться нашим ресурсом. Все новые фильмы, игры, сериалы, книги и музыка за 2013 и 2014 годы через торрент бесплатно. Скачивайте фильмы в хорошем качестве, игры для пк, xbox, playstation без регистрации. У нас вы найдете новые Зарубежные сериалы и Русские сериалы 2013, 2014, 2015 годов. Оставайтесь с нами, качайте любимые фильмы, игры, сериалы, книги и музыку.