img image001 image001 image001 image001 image001 image001 image001 image001 image001 image001 image001 image001 image001 image001 image001

Planets Sun Sun Sun
Статистика раздачи
Автор: PriZraK | Размер: 744.21 МБ | Добавлен: 08 ноя 2016
Раздают: 0    Качают: 0
Скачать торрент
Скачать торрент
Описание торрента

СообщениеДобавлено: 08 ноя 2016 

Страна: СССР
Производство: Мосфильм
Жанр: драма, военный
Год выпуска: 1956
Продолжительность: 01:30:04
Перевод: Не требуется
Cубтитры: нет
Оригинальная аудиодорожка: русский
Режиссер: Захар Аграненко, Эдуард Тиссэ
В ролях:
Василий Макаров, Владимир Емельянов, Николай Крючков, Анатолий Чемодуров, Валентина Серова, Лидия Сухаревская, Антонина Богданова, Лариса Нарышкина, Геннадий Сайфулин, Надя Фандикова, Феликс Яворский, Владимир Монахов (II), Евгений Михайлов (II), Михаил Дадыко, Леонид Чубаров, Юрий Аверин...
Полный список актёров
Описание:
Фильм посвящен беспримерному подвигу защитников Брестской крепости. Время действия: 22 июня - 20 июля 1941 года, первые, самые страшные дни Великой Отечественной войны. В ленте отражен всенародный патриотический подъем в дни фашистского нашествия, самоотверженность и сплоченность советских людей перед лицом врага.





Источник: DVD5 R5
Качество видео: DVDRip
Формат видео: AVI
Видео: 640x480 (4:3), 25 fps, XviD ~ 1017 kbps avg, 0.132 bit/pixel
Аудио: 48 kHz, MP3 2.0, 128 kbps
Раздача от:
Общее
Полное имя : Bessmertnyi.garnizon.1956.DVDRip-745_[New-team]_by_AVP_Studio.avi
Формат : AVI
Формат/Информация : Audio Video Interleave
Размер файла : 744 Мбайт
Продолжительность : 1 ч. 30 м.
Общий поток : 1155 Кбит/сек
Программа кодирования : VirtualDubMod 1.5.10.3 | www.virtualdub-fr.org || (build 2550/release)
Библиотека кодирования : VirtualDubMod build 2550/release
Видео
Идентификатор : 0
Формат : MPEG-4 Visual
Профиль формата : Advanced Simple@L5
Параметр BVOP формата : 1
Параметр QPel формата : Нет
Параметр GMC формата : Без точки перехода
Параметр матрицы формата : Выборочная
Идентификатор кодека : XVID
Идентификатор кодека/Подсказка : XviD
Продолжительность : 1 ч. 30 м.
Битрейт : 1017 Кбит/сек
Ширина : 640 пикселей
Высота : 480 пикселей
Соотношение сторон : 4:3
Частота кадров : 25,000 кадров/сек
Цветовое пространство : YUV
Субдискретизация насыщенности : 4:2:0
Битовая глубина : 8 бит
Тип развёртки : Прогрессивная
Метод сжатия : С потерями
Бит/(Пиксели*Кадры) : 0.132
Размер потока : 655 Мбайт (88%)
Библиотека кодирования : XviD 1.2.1 (UTC 2008-12-04)
Аудио
Идентификатор : 1
Формат : MPEG Audio
Версия формата : Version 1
Профиль формата : Layer 3
Идентификатор кодека : 55
Идентификатор кодека/Подсказка : MP3
Продолжительность : 1 ч. 30 м.
Вид битрейта : Постоянный
Битрейт : 128 Кбит/сек
Каналы : 2 канала
Частота : 48,0 КГц
Метод сжатия : С потерями
Размер потока : 82,5 Мбайт (11%)
Выравнивание : Соединение по промежуткам
Продолжительность промежутка : 40 мс. (1,00 видеокадр)
Время предзагрузки промежутка : 504 мс.
Библиотека кодирования : LAME3.99r
Настройки программы : -m s -V 4 -q 2 -lowpass 17 -b 128





   Похожие торренты   Торрент   Размер 
В этой теме нет новых непрочитанных сообщений. Бессмертный гарнизон (1956) DVDRip от New-Team

2 | 0

1.09 ГБ

В этой теме нет новых непрочитанных сообщений. Бессмертный гарнизон (1956) DVDRip-AVC от New-Team

5 | 0

1.09 ГБ

В этой теме нет новых непрочитанных сообщений. Бессмертный гарнизон (1956) DVDRip by гаврила

308 | 20

1.37 ГБ

В этой теме нет новых непрочитанных сообщений. Бессмертный гарнизон (1956) DVDRip от AndrewWhite

78 | 12

699.77 МБ

В этой теме нет новых непрочитанных сообщений. Бессмертный гарнизон (1956) DVDRip-AVC от ExKinoRay

182 | 9

1.65 ГБ

В этой теме нет новых непрочитанных сообщений. Кащей Бессмертный (1944) DVDRip от New-Team

33 | 4

1.09 ГБ

В этой теме нет новых непрочитанных сообщений. Кащей Бессмертный (1944) DVDRip-AVC от New-Team

96 | 10

1.09 ГБ




Вы не можете начинать темы
Вы не можете отвечать на сообщения
Вы не можете редактировать свои сообщения
Вы не можете удалять свои сообщения
Вы не можете добавлять вложения

Перейти:  
Для Мосгорсуда, Роскомнадзора и рекламодателей: mosgorsud-torrent[собачка]yandex.ru
 Вход
ppkBB3cker v.2 © 2008-2014 @ PPK
[ Time : 0.121s | 17 Queries | GZIP : Off ]

cron