img image001 image001 image001 image001 image001 image001 image001 image001 image001 image001 image001 image001 image001 image001 image001

Planets Sun Sun Sun
Статистика раздачи
Автор: PriZraK | Размер: 2.6 ГБ | Добавлен: 10 ноя 2016
Раздают: 27    Качают: 0
Скачать торрент
Скачать торрент
Описание торрента

СообщениеДобавлено: 10 ноя 2016 


Информация о фильме
Название: Любовь земная
Год выхода: 1975
Жанр: Мелодрама
Режиссер: Евгений Матвеев
В ролях: Евгений Матвеев, Валерия Заклунная, Зинаида Кириенко, Муза Крепкогорская, Александр Лебедев, Зоя Исаева, Николай Юдин, Валентина Клягина, Ольга Остроумова, Александр Потапов, Станислав Чекан, Владимир Самойлов (I), Юрий Яковлев, Ирина Скобцева, Вадим Спиридонов, Николай Бармин, Виктор Маркин (I), Владимир Плотников, Юрий Мартынов, Анатолий Дегтярь, Александр Вигдоров, Владимир Гуляев, Виктор Хохряков, Дмитрий Орловский, Любовь Соколова, Роман Филиппов, Юрий Леонидов (II), Владимир Пицек, Валентина Ушакова, Валентин Брылеев
О фильме:
Председатель колхоза Захар Дерюгин, имея семью, полюбил Маню Поливанову. Маня рожает от него сына. Захара исключают из партии и снимают с должности председателя. Душа его этим уязвлена, но больше всего он страдает оттого, что Маня решила с ним расстаться и воспитывать сына самостоятельно. Но началась война, и Захар уходит на фронт…

Страна: СССР
Студия: Мосфильм
Продолжительность: 01:29:28
Перевод: Не требуется
Файл
Качество: HDTVRip 720p
Формат: MKV
Кодек: MPEG-4 AVC Video
Видео: 1280x544 (2,35:1), 25 fps, MPEG-4 AVC ~ 4000 kbps avg, 0.230 bit/pixel
Аудио: AC3, 48 kHz, 2 ch, ~192.00 kbps avg | русский
Субтитры: Отсутствуют
Семпл
Общее
Уникальный идентификатор : 211379518979234188318321392578027621242 (0x9F0636EAFE87466BB545656E1C808B7A)
Полное имя : Lubov.zemnaya.1974.720p.mkv
Формат : Matroska
Версия формата : Version 4 / Version 2
Размер файла : 2,60 Гбайт
Продолжительность : 1 ч. 29 м.
Общий поток : 4168 Кбит/сек
Название фильма : Любовь земная (1974)
Дата кодирования : UTC 2016-11-08 07:41:23
Программа кодирования : mkvmerge v8.3.0 ('Over the Horizon') 64bit
Библиотека кодирования : libebml v1.3.1 + libmatroska v1.4.2
DURATION : 01:29:27.648000000
NUMBER_OF_FRAMES : 167739
NUMBER_OF_BYTES : 128823552
_STATISTICS_WRITING_APP : mkvmerge v8.3.0 ('Over the Horizon') 64bit
_STATISTICS_WRITING_DATE_UTC : 2016-11-08 07:41:23
_STATISTICS_TAGS : BPS DURATION NUMBER_OF_FRAMES NUMBER_OF_BYTES
Видео
Идентификатор : 1
Формат : AVC
Формат/Информация : Advanced Video Codec
Профиль формата : High@L4.1
Параметр CABAC формата : Да
Параметр ReFrames формата : 8 кадров
Идентификатор кодека : V_MPEG4/ISO/AVC
Продолжительность : 1 ч. 29 м.
Битрейт : 4000 Кбит/сек
Ширина : 1280 пикселей
Высота : 544 пикселя
Соотношение сторон : 2,35:1
Режим частоты кадров : Постоянный
Частота кадров : 25,000 кадров/сек
Цветовое пространство : YUV
Субдискретизация насыщенности : 4:2:0
Битовая глубина : 8 бит
Тип развёртки : Прогрессивная
Бит/(Пиксели*Кадры) : 0.230
Размер потока : 2,43 Гбайт (93%)
Заголовок : Lubov.zemnaya.1974.720p
Библиотека кодирования : x264 core 148 r2705 3f5ed56
Настройки программы : cabac=1 / ref=8 / deblock=1:-1:0 / analyse=0x3:0x133 / me=umh / subme=11 / psy=1 / psy_rd=1.00:0.60 / mixed_ref=1 / me_range=30 / chroma_me=1 / trellis=2 / 8x8dct=1 / cqm=0 / deadzone=21,11 / fast_pskip=1 / chroma_qp_offset=-4 / threads=12 / lookahead_threads=1 / sliced_threads=0 / nr=0 / decimate=0 / interlaced=0 / bluray_compat=0 / constrained_intra=0 / bframes=5 / b_pyramid=2 / b_adapt=1 / b_bias=0 / direct=1 / weightb=1 / open_gop=0 / weightp=2 / keyint=250 / keyint_min=25 / scenecut=40 / intra_refresh=0 / rc_lookahead=40 / rc=abr / mbtree=1 / bitrate=4000 / ratetol=1.0 / qcomp=0.60 / qpmin=0 / qpmax=69 / qpstep=4 / vbv_maxrate=62500 / vbv_bufsize=78125 / nal_hrd=none / filler=0 / ip_ratio=1.40 / aq=1:1.00
Язык : Russian
Default : Да
Forced : Да
Цветовой диапазон : Limited
Основные цвета : BT.709
Характеристики трансфера : BT.709
Коэффициенты матрицы : BT.709
DURATION : 01:29:27.600000000
NUMBER_OF_FRAMES : 134190
NUMBER_OF_BYTES : 2666246584
_STATISTICS_WRITING_APP : mkvmerge v8.3.0 ('Over the Horizon') 64bit
_STATISTICS_WRITING_DATE_UTC : 2016-11-08 07:41:23
_STATISTICS_TAGS : BPS DURATION NUMBER_OF_FRAMES NUMBER_OF_BYTES
Аудио
Идентификатор : 2
Формат : AC-3
Формат/Информация : Audio Coding 3
Расширение режима : CM (complete main)
Параметр Endianness формата : Big
Идентификатор кодека : A_AC3
Продолжительность : 1 ч. 29 м.
Вид битрейта : Постоянный
Битрейт : 192 Кбит/сек
Каналы : 2 канала
Расположение каналов : Front: L R
Частота : 48,0 КГц
Метод сжатия : С потерями
Задержка видео : -5 мс.
Размер потока : 123 Мбайт (5%)
Default : Да
Forced : Нет



   Похожие торренты   Торрент   Размер 
В этой теме нет новых непрочитанных сообщений. Любовь земная (1975) HDTVRip

51 | 0

1.37 ГБ

В этой теме нет новых непрочитанных сообщений. Любовь земная (1974) DVDRip

743 | 47

1.37 ГБ

В этой теме нет новых непрочитанных сообщений. Сергей Любавин — Любовь моя земная (2011) MP3

13 | 9

124.34 МБ

В этой теме нет новых непрочитанных сообщений. Сергей Любавин - Любовь моя земная (2011) DVDRip от Lebanon

32 | 6

1.46 ГБ

В этой теме нет новых непрочитанных сообщений. Все в порядке, это любовь / Просто это любовь / Ничего страшного, это любовь / It's Okay It's Love [01-16 из 16](2014) HDTVRip 720р | L2

5 | 34

18.51 ГБ

В этой теме нет новых непрочитанных сообщений. Любовь и смерть / Love and Death (1975) HDTVRip-AVC от Torrent-Xzona

111 | 2

1.11 ГБ

В этой теме нет новых непрочитанных сообщений. Все в порядке, это любовь / It's Okay It's Love [01-16 из 16](2014) HDTVRip 720р | L2

2 | 2

18.51 ГБ




Вы не можете начинать темы
Вы не можете отвечать на сообщения
Вы не можете редактировать свои сообщения
Вы не можете удалять свои сообщения
Вы не можете добавлять вложения

Перейти:  
Для Мосгорсуда, Роскомнадзора и рекламодателей: mosgorsud-torrent[собачка]yandex.ru
 Вход
ppkBB3cker v.2 © 2008-2014 @ PPK
[ Time : 0.033s | 15 Queries | GZIP : Off ]

Торрент трекер RUTOR.IN, Не можете зайти на rutor.org? Какой новый адрес рутор? Какое зеркало рутор? Не работает rutor.org и зеркала? Тогда наш торрент специально для вас. Rutor.in неофициальное зеркало rutor. В случае если у Вас заблокирован rutor или вдруг Вы не можете на него зайти, то Вы без труда сможете скачать бесплатно и без рекламы последние новинки кино, игр, сериалов и прочего у нас, на Rutor.in. Не нужно использовать прокси, чтобы зайти на рутор, достаточно воспользоваться нашим ресурсом. Все новые фильмы, игры, сериалы, книги и музыка за 2013 и 2014 годы через торрент бесплатно. Скачивайте фильмы в хорошем качестве, игры для пк, xbox, playstation без регистрации. У нас вы найдете новые Зарубежные сериалы и Русские сериалы 2013, 2014, 2015 годов. Оставайтесь с нами, качайте любимые фильмы, игры, сериалы, книги и музыку.
cron