img image001 image001 image001 image001 image001 image001 image001 image001 image001 image001 image001 image001 image001 image001 image001

Planets Sun Sun Sun
Статистика раздачи
Автор: PriZraK | Размер: 1.37 ГБ | Добавлен: 10 ноя 2016
Раздают: 71    Качают: 12
Скачать торрент
Скачать торрент
Описание торрента

СообщениеДобавлено: 10 ноя 2016 


Информация о фильме
Название: Любовь земная
Год выхода: 1975
Жанр: Мелодрама
Режиссер: Евгений Матвеев
В ролях: Евгений Матвеев, Валерия Заклунная, Зинаида Кириенко, Муза Крепкогорская, Александр Лебедев, Зоя Исаева, Николай Юдин, Валентина Клягина, Ольга Остроумова, Александр Потапов, Станислав Чекан, Владимир Самойлов (I), Юрий Яковлев, Ирина Скобцева, Вадим Спиридонов, Николай Бармин, Виктор Маркин (I), Владимир Плотников, Юрий Мартынов, Анатолий Дегтярь, Александр Вигдоров, Владимир Гуляев, Виктор Хохряков, Дмитрий Орловский, Любовь Соколова, Роман Филиппов, Юрий Леонидов (II), Владимир Пицек, Валентина Ушакова, Валентин Брылеев
О фильме:
Председатель колхоза Захар Дерюгин, имея семью, полюбил Маню Поливанову. Маня рожает от него сына. Захара исключают из партии и снимают с должности председателя. Душа его этим уязвлена, но больше всего он страдает оттого, что Маня решила с ним расстаться и воспитывать сына самостоятельно. Но началась война, и Захар уходит на фронт…

Страна: СССР
Студия: Мосфильм
Продолжительность: 01:29:28
Перевод: Не требуется
Файл
Качество: HDTVRip
Формат: AVI
Кодек: XviD
Видео: 720x304 (2,35:1), 25 fps, XviD ~ 1991 kbps avg, 0.364 bit/pixel
Аудио: AC3, 48 kHz, 2 ch, ~192.00 kbps avg | русский
Субтитры: Отсутствуют
Семпл
Общее
Полное имя : Lubov.zemnaya.1975.HDTVRip.avi
Формат : AVI
Формат/Информация : Audio Video Interleave
Размер файла : 1,37 Гбайт
Продолжительность : 1 ч. 29 м.
Общий поток : 2192 Кбит/сек
Программа кодирования : VirtualDubMod 1.5.10.3 (build 2550/release)
Библиотека кодирования : VirtualDubMod build 2550/release
Видео
Идентификатор : 0
Формат : MPEG-4 Visual
Профиль формата : Advanced Simple@L5
Параметр BVOP формата : 2
Параметр QPel формата : Нет
Параметр GMC формата : Без точки перехода
Параметр матрицы формата : Выборочная
Идентификатор кодека : XVID
Идентификатор кодека/Подсказка : XviD
Продолжительность : 1 ч. 29 м.
Битрейт : 1991 Кбит/сек
Ширина : 720 пикселей
Высота : 304 пикселя
Соотношение сторон : 2,35:1
Частота кадров : 25,000 кадров/сек
Цветовое пространство : YUV
Субдискретизация насыщенности : 4:2:0
Битовая глубина : 8 бит
Тип развёртки : Прогрессивная
Метод сжатия : С потерями
Бит/(Пиксели*Кадры) : 0.364
Размер потока : 1,24 Гбайт (91%)
Библиотека кодирования : XviD 73
Аудио
Идентификатор : 1
Формат : AC-3
Формат/Информация : Audio Coding 3
Расширение режима : CM (complete main)
Параметр Endianness формата : Big
Идентификатор кодека : 2000
Продолжительность : 1 ч. 29 м.
Вид битрейта : Постоянный
Битрейт : 192 Кбит/сек
Каналы : 2 канала
Расположение каналов : Front: L R
Частота : 48,0 КГц
Метод сжатия : С потерями
Размер потока : 123 Мбайт (9%)
Выравнивание : Разделение по промежуткам
Продолжительность промежутка : 40 мс. (1,00 видеокадр)
Время предзагрузки промежутка : 500 мс.



   Похожие торренты   Торрент   Размер 
В этой теме нет новых непрочитанных сообщений. Любовь земная (1975) HDTVRip 720р

57 | 6

2.6 ГБ

В этой теме нет новых непрочитанных сообщений. Любовь земная (1974) DVDRip

743 | 47

1.37 ГБ

В этой теме нет новых непрочитанных сообщений. Сергей Любавин — Любовь моя земная (2011) MP3

13 | 9

124.34 МБ

В этой теме нет новых непрочитанных сообщений. Сергей Любавин - Любовь моя земная (2011) DVDRip от Lebanon

32 | 6

1.46 ГБ

В этой теме нет новых непрочитанных сообщений. Любовь и смерть / Love and Death (1975) HDTVRip-AVC от Torrent-Xzona

111 | 2

1.11 ГБ

В этой теме нет новых непрочитанных сообщений. Все в порядке, это любовь / Просто это любовь / Ничего страшного, это любовь / It's Okay It's Love [01-16 из 16](2014) HDTVRip 720р | L2

5 | 34

18.51 ГБ

В этой теме нет новых непрочитанных сообщений. Либера, любовь моя / Libera, amore mio! (1975) DVDRip | P2

40 | 7

1.45 ГБ




Вы не можете начинать темы
Вы не можете отвечать на сообщения
Вы не можете редактировать свои сообщения
Вы не можете удалять свои сообщения
Вы не можете добавлять вложения

Перейти:  
Для Мосгорсуда, Роскомнадзора и рекламодателей: mosgorsud-torrent[собачка]yandex.ru
 Вход
ppkBB3cker v.2 © 2008-2014 @ PPK
[ Time : 0.020s | 14 Queries | GZIP : On ]

Торрент трекер RUTOR.IN, Не можете зайти на rutor.org? Какой новый адрес рутор? Какое зеркало рутор? Не работает rutor.org и зеркала? Тогда наш торрент специально для вас. Rutor.in неофициальное зеркало rutor. В случае если у Вас заблокирован rutor или вдруг Вы не можете на него зайти, то Вы без труда сможете скачать бесплатно и без рекламы последние новинки кино, игр, сериалов и прочего у нас, на Rutor.in. Не нужно использовать прокси, чтобы зайти на рутор, достаточно воспользоваться нашим ресурсом. Все новые фильмы, игры, сериалы, книги и музыка за 2013 и 2014 годы через торрент бесплатно. Скачивайте фильмы в хорошем качестве, игры для пк, xbox, playstation без регистрации. У нас вы найдете новые Зарубежные сериалы и Русские сериалы 2013, 2014, 2015 годов. Оставайтесь с нами, качайте любимые фильмы, игры, сериалы, книги и музыку.