img image001 image001 image001 image001 image001 image001 image001 image001 image001 image001 image001 image001 image001 image001 image001

Planets Sun Sun Sun
Статистика раздачи
Автор: PriZraK | Размер: 742.55 МБ | Добавлен: 11 ноя 2016
Раздают: 7    Качают: 1
Скачать торрент
Скачать торрент
Описание торрента

СообщениеДобавлено: 11 ноя 2016 

Страна: СССР
Производство: Ереванская киностудия
Жанр: приключения
Год выпуска: 1956
Продолжительность: 00:59:43
Перевод: Не требуется
Cубтитры: нет
Оригинальная аудиодорожка: русский
Режиссер: Юрий Ерзинкян
В ролях:
Роберт Мкртчян, Л. Ордоян, Юрий Хачатрян, Г. Ходжагорян, Араик Мкртумян, Ори Буниатян, Гаруш Хажакян, Ашот Нерсесян...
Полный список актёров
Описание:
Дни летних каникул. Увлечённый чтением книги Арсеньева о смелом охотнике Дерсу Узала, школьник Авдал опаздывает вернуться в кочевье пастухов, откуда его послали за провиантом. Друзья уговаривают Авдала переночевать, обещая проводить его. Утром пятеро ребят, Ашот, Шушик, Авдал, Гагик и Саркис, отправляются в путь. Саркис предлагает идти кратчайшим путём, через Барсово ущелье. Уверения Ашота, что в ущелье нет выхода, бурно отвергаются Саркисом. Друзья вступают на тропу, ведущую к ущелью. Внезапно налетевший буран разрушает мост, по которому ребята только что прошли. Вход в ущелье оказывается заваленным. Под ливнем, без еды и огня пятеро друзей становятся пленниками Барсова ущелья…





Источник: DVD5 R5
Качество видео: DVDRip
Формат видео: AVI
Видео: 704x528 (4:3), 25 fps, XviD ~ 1537 kbps avg, 0.165 bit/pixel
Аудио: 48 kHz, Dolby Digital AC3 2.0, 192 kbps
Раздача от:
Общее
Полное имя : Plenniki.Barsova.ushhelya.1956.DVDRip_[New-team]_by_AVP_Studio.avi
Формат : AVI
Формат/Информация : Audio Video Interleave
Размер файла : 743 Мбайт
Продолжительность : 59 м. 42 с.
Общий поток : 1739 Кбит/сек
Программа кодирования : VirtualDubMod 1.5.10.3 | www.virtualdub-fr.org || (build 2550/release)
Библиотека кодирования : VirtualDubMod build 2550/release
Видео
Идентификатор : 0
Формат : MPEG-4 Visual
Профиль формата : Advanced Simple@L5
Параметр BVOP формата : 1
Параметр QPel формата : Нет
Параметр GMC формата : Без точки перехода
Параметр матрицы формата : Выборочная
Идентификатор кодека : XVID
Идентификатор кодека/Подсказка : XviD
Продолжительность : 59 м. 42 с.
Битрейт : 1537 Кбит/сек
Ширина : 704 пикселя
Высота : 528 пикселей
Соотношение сторон : 4:3
Частота кадров : 25,000 кадров/сек
Цветовое пространство : YUV
Субдискретизация насыщенности : 4:2:0
Битовая глубина : 8 бит
Тип развёртки : Прогрессивная
Метод сжатия : С потерями
Бит/(Пиксели*Кадры) : 0.165
Размер потока : 656 Мбайт (88%)
Библиотека кодирования : XviD 1.2.1 (UTC 2008-12-04)
Аудио
Идентификатор : 1
Формат : AC-3
Формат/Информация : Audio Coding 3
Расширение режима : CM (complete main)
Параметр Endianness формата : Big
Идентификатор кодека : 2000
Продолжительность : 59 м. 42 с.
Вид битрейта : Постоянный
Битрейт : 192 Кбит/сек
Каналы : 2 канала
Расположение каналов : Front: L R
Частота : 48,0 КГц
Частота кадров : 31,250 кадров/сек (1536 spf)
Битовая глубина : 16 бит
Метод сжатия : С потерями
Размер потока : 82,0 Мбайт (11%)
Выравнивание : Разделение по промежуткам
Продолжительность промежутка : 40 мс. (1,00 видеокадр)
Время предзагрузки промежутка : 500 мс





   Похожие торренты   Торрент   Размер 
В этой теме нет новых непрочитанных сообщений. Пленники Барсова ущелья (1956) DVDRip-AVC от New-Team

14 | 0

744.8 МБ

В этой теме нет новых непрочитанных сообщений. Из-за чести (1956) DVDRip от New-Team

2 | 0

745.62 МБ

В этой теме нет новых непрочитанных сообщений. Из-за чести (1956) DVDRip-AVC от New-Team

7 | 1

1.09 ГБ

В этой теме нет новых непрочитанных сообщений. Она Вас любит (1956) DVDRip от New-Team

8 | 6

1.09 ГБ

В этой теме нет новых непрочитанных сообщений. Солдаты (1956) DVDRip-AVC от New-Team

28 | 0

1.46 ГБ

В этой теме нет новых непрочитанных сообщений. Она Вас любит (1956) DVDRip от New-Team

1 | 0

742.73 МБ

В этой теме нет новых непрочитанных сообщений. Она Вас любит (1956) DVDRip-AVC от New-Team

6 | 0

1.09 ГБ




Вы не можете начинать темы
Вы не можете отвечать на сообщения
Вы не можете редактировать свои сообщения
Вы не можете удалять свои сообщения
Вы не можете добавлять вложения

Перейти:  
Для Мосгорсуда, Роскомнадзора и рекламодателей: mosgorsud-torrent[собачка]yandex.ru
 Вход
ppkBB3cker v.2 © 2008-2014 @ PPK
[ Time : 0.046s | 15 Queries | GZIP : Off ]

Торрент трекер RUTOR.IN, Не можете зайти на rutor.org? Какой новый адрес рутор? Какое зеркало рутор? Не работает rutor.org и зеркала? Тогда наш торрент специально для вас. Rutor.in неофициальное зеркало rutor. В случае если у Вас заблокирован rutor или вдруг Вы не можете на него зайти, то Вы без труда сможете скачать бесплатно и без рекламы последние новинки кино, игр, сериалов и прочего у нас, на Rutor.in. Не нужно использовать прокси, чтобы зайти на рутор, достаточно воспользоваться нашим ресурсом. Все новые фильмы, игры, сериалы, книги и музыка за 2013 и 2014 годы через торрент бесплатно. Скачивайте фильмы в хорошем качестве, игры для пк, xbox, playstation без регистрации. У нас вы найдете новые Зарубежные сериалы и Русские сериалы 2013, 2014, 2015 годов. Оставайтесь с нами, качайте любимые фильмы, игры, сериалы, книги и музыку.