img image001 image001 image001 image001 image001 image001 image001 image001 image001 image001 image001 image001 image001 image001 image001

Planets Sun Sun Sun
Статистика раздачи
Автор: PriZraK | Размер: 55.42 МБ | Добавлен: 11 ноя 2016
Раздают: 42    Качают: 0
Скачать торрент
Скачать торрент
Описание торрента

СообщениеДобавлено: 11 ноя 2016 


Информация о фильме
Название: Полет к тысячам солнц
Год выхода: 1963
Жанр: фантастика, детский, короткометражный
Режиссер: Алексей Ерин
В ролях: Виктор Бирцев, Миша Эсс
О фильме:
Фильм построен на синтезе научно-популярного и игрового кино. Ночью, во время рыбалки, молодой учёный рассказывает своему юному другу о космосе, о системе галактик. И вот в мечтах мальчик переносится в будущее, где он командир космолёта, бороздящего космические пространства.

Страна: СССР / Леннаучфильм
Продолжительность: 00:16:05
Перевод: оригинал
Файл
Качество: WEBRip-AVC
Формат: MKV
Видео: MPEG-4 AVC, 546x480, 25.000 fps, 344 kbps, 0.052 bit/pixel
Аудио: русский, AC3 2.0, 44.1 kHz, 128 kbps
Формат : Matroska
Версия формата : Version 4 / Version 2
Размер файла : 55,4 Мбайт
Продолжительность : 16 м.
Общий поток : 481 Кбит/сек
Дата кодирования : UTC 2016-11-10 10:43:44
Программа кодирования : mkvmerge v7.9.0 ('Birds') 64bit
Библиотека кодирования : libebml v1.3.1 + libmatroska v1.4.2
Видео
Идентификатор : 1
Формат : AVC
Формат/Информация : Advanced Video Codec
Профиль формата : Main@L3
Параметр CABAC формата : Да
Параметр ReFrames формата : 3 кадра
Идентификатор кодека : V_MPEG4/ISO/AVC
Продолжительность : 16 м.
Битрейт : 344 Кбит/сек
Ширина : 546 пикселей
Высота : 480 пикселей
Соотношение сторон : 1,138
Режим частоты кадров : Постоянный
Частота кадров : 25,000 кадров/сек
Цветовое пространство : YUV
Субдискретизация насыщенности : 4:2:0
Битовая глубина : 8 бит
Тип развёртки : Прогрессивная
Бит/(Пиксели*Кадры) : 0.052
Размер потока : 39,6 Мбайт (71%)
Язык : Russian
Default : Да
Forced : Нет
Аудио
Идентификатор : 2
Формат : AC-3
Формат/Информация : Audio Coding 3
Расширение режима : CM (complete main)
Параметр Endianness формата : Big
Идентификатор кодека : A_AC3
Продолжительность : 16 м.
Вид битрейта : Постоянный
Битрейт : 128 Кбит/сек
Каналы : 2 канала
Расположение каналов : Front: L R
Частота : 44,1 КГц
Метод сжатия : С потерями
Размер потока : 14,7 Мбайт (27%)
Язык : Russian
Default : Да
Forced : Нет



   Похожие торренты   Торрент   Размер 
В этой теме нет новых непрочитанных сообщений. Полет ведьмы / Flying Witch [01-07 из 12] (2016) WEBRip 720p | L1

1 | 0

2.29 ГБ

В этой теме нет новых непрочитанных сообщений. Полет ведьмы / Flying Witch [01-09 из 12] (2016) WEBRip 720p | L1

21 | 6

2.94 ГБ

В этой теме нет новых непрочитанных сообщений. Полет ведьмы / Flying Witch [01-05 из 12] (2016) WEBRip 720p | L1

2 | 1

1.64 ГБ

В этой теме нет новых непрочитанных сообщений. Полет ведьмы / Flying Witch [01-10 из 12] (2016) WEBRip 720p | L1

14 | 2

3.27 ГБ

В этой теме нет новых непрочитанных сообщений. Полет ведьмы / Flying Witch [01-04 из 12] (2016) WEBRip 720p | L1

24 | 11

1.31 ГБ

В этой теме нет новых непрочитанных сообщений. Полет ведьмы / Flying Witch [01-08 из 12] (2016) WEBRip 720p | L1

7 | 8

2.62 ГБ

В этой теме нет новых непрочитанных сообщений. Полет ведьмы / Flying Witch [12 из 12] (2016) WEBRip 720p | L1

83 | 27

3.93 ГБ




Вы не можете начинать темы
Вы не можете отвечать на сообщения
Вы не можете редактировать свои сообщения
Вы не можете удалять свои сообщения
Вы не можете добавлять вложения

Перейти:  
Для Мосгорсуда, Роскомнадзора и рекламодателей: mosgorsud-torrent[собачка]yandex.ru
 Вход
ppkBB3cker v.2 © 2008-2014 @ PPK
[ Time : 3.908s | 14 Queries | GZIP : Off ]
CGP output time : 0.112s | 5 Queries | GZIP : Off

Торрент трекер RUTOR.IN, Не можете зайти на rutor.org? Какой новый адрес рутор? Какое зеркало рутор? Не работает rutor.org и зеркала? Тогда наш торрент специально для вас. Rutor.in неофициальное зеркало rutor. В случае если у Вас заблокирован rutor или вдруг Вы не можете на него зайти, то Вы без труда сможете скачать бесплатно и без рекламы последние новинки кино, игр, сериалов и прочего у нас, на Rutor.in. Не нужно использовать прокси, чтобы зайти на рутор, достаточно воспользоваться нашим ресурсом. Все новые фильмы, игры, сериалы, книги и музыка за 2013 и 2014 годы через торрент бесплатно. Скачивайте фильмы в хорошем качестве, игры для пк, xbox, playstation без регистрации. У нас вы найдете новые Зарубежные сериалы и Русские сериалы 2013, 2014, 2015 годов. Оставайтесь с нами, качайте любимые фильмы, игры, сериалы, книги и музыку.