img image001 image001 image001 image001 image001 image001 image001 image001 image001 image001 image001 image001 image001 image001 image001

Planets Sun Sun Sun
Статистика раздачи
Автор: PriZraK | Размер: 743.82 МБ | Добавлен: 11 ноя 2016
Раздают: 12    Качают: 0
Скачать торрент
Скачать торрент
Описание торрента

СообщениеДобавлено: 11 ноя 2016 


Информация о фильме
Название: Коллектор
Год выпуска: 2016
Жанр: Драма, триллер
Режиссер: Алексей Красовский
В ролях: Константин Хабенский, Евгений Стычкин, Ксения Буравская, Полина Агуреева, Кирилл Плетнёв, Валентина Лукащук, Александр Тютин
О фильме:
Артур — мастер своего дела. Работая только с крупными должниками, он находит всю их подноготную и эффективно использует против них. Он никогда не прибегает к банальным методам, его конёк — психологическая атака. Артур умеет виртуозно перевоплощаться, сбивать с толку, выводить из равновесия, и так допекать своих клиентов, что они готовы вернуть всё, только бы никогда больше не слышать его голос. Но однажды Артур сам становится мишенью: в сети появляется скандальное видео с его участием, и от него мгновенно отворачиваются друзья и коллеги. Под угрозой оказывается не только его репутация, но и жизнь… Теперь у коллектора есть всего одна ночь чтобы найти того, кто загнал его в угол...

Страна: Россия
Студия: «Paprika Productions»
Продолжительность: 01:11:04
Перевод: Не требуется (русский) | iTunes
Файл
Формат: avi
Качество: WEB-DLRip
Видео: XviD build 73, 688x288 (2.40:1), 25.000 fps, 1261 Kbps (0.255 bit/pixel)
Звук: 48.0 kHz, MP3 2/0 ch, 192 kbps
General
Complete name : Kollektor.2016.XviD.WEB-DLRip.GeneralFilm.avi
Format : AVI
Format/Info : Audio Video Interleave
File size : 744 MiB
Duration : 1h 11mn
Overall bit rate : 1 463 Kbps
Writing application : VirtualDubMod 1.5.10.3 | www.virtualdub-fr.org || (build 2550/release)
Writing library : VirtualDubMod build 2550/release
Video
ID : 0
Format : MPEG-4 Visual
Format profile : Advanced Simple@L5
Format settings, BVOP : 1
Format settings, QPel : No
Format settings, GMC : No warppoints
Format settings, Matrix : Custom
Codec ID : XVID
Codec ID/Hint : XviD
Duration : 1h 11mn
Bit rate : 1 261 Kbps
Width : 688 pixels
Height : 288 pixels
Display aspect ratio : 2.40:1
Frame rate : 25.000 fps
Color space : YUV
Chroma subsampling : 4:2:0
Bit depth : 8 bits
Scan type : Progressive
Compression mode : Lossy
Bits/(Pixel*Frame) : 0.255
Stream size : 641 MiB (86%)
Writing library : XviD 73
Audio
ID : 1
Format : MPEG Audio
Format version : Version 1
Format profile : Layer 3
Codec ID : 55
Codec ID/Hint : MP3
Duration : 1h 11mn
Bit rate mode : Constant
Bit rate : 192 Kbps
Channel(s) : 2 channels
Sampling rate : 48.0 KHz
Compression mode : Lossy
Stream size : 97.6 MiB (13%)
Alignment : Aligned on interleaves
Interleave, duration : 40 ms (1.00 video frame)
Interleave, preload duratio : 504 ms
Writing library : LAME3.99r
Encoding settings : -m s -V 4 -q 0 -lowpass 18.6 -b 192


Релиз от:
Исходник: Collector.2016.1080p.WEB-DL.Rus.HDCLUB



   Похожие торренты   Торрент   Размер 
В этой теме нет новых непрочитанных сообщений. Коллектор (2016) WEB-DLRip от Generalfilm | КПК | iTunes

105 | 0

295.82 МБ

В этой теме нет новых непрочитанных сообщений. Коллектор (2016) WEB-DLRip от GeneralFilm| iTunes

16 | 2

744.11 МБ

В этой теме нет новых непрочитанных сообщений. Коллектор (2016) WEB-DLRip-AVC от k.e.n | iTunes

30 | 2

1.46 ГБ

В этой теме нет новых непрочитанных сообщений. Коллектор (2016) WEB-DLRip | iTunes

611 | 4

1.33 ГБ

В этой теме нет новых непрочитанных сообщений. Коллектор (2016) WEB-DLRip от Scarabey | iTunes

145 | 0

1.31 ГБ

В этой теме нет новых непрочитанных сообщений. Коллектор (2016) WEB-DLRip-AVC от ExKinoRay | iTunes

33 | 0

1.08 ГБ

В этой теме нет новых непрочитанных сообщений. Коллектор (2016) WEB-DLRip от Kaztorrents | КПК | iTunes

20 | 0

650.8 МБ




Вы не можете начинать темы
Вы не можете отвечать на сообщения
Вы не можете редактировать свои сообщения
Вы не можете удалять свои сообщения
Вы не можете добавлять вложения

Перейти:  
Для Мосгорсуда, Роскомнадзора и рекламодателей: mosgorsud-torrent[собачка]yandex.ru
 Вход
ppkBB3cker v.2 © 2008-2014 @ PPK
[ Time : 0.039s | 15 Queries | GZIP : Off ]

Торрент трекер RUTOR.IN, Не можете зайти на rutor.org? Какой новый адрес рутор? Какое зеркало рутор? Не работает rutor.org и зеркала? Тогда наш торрент специально для вас. Rutor.in неофициальное зеркало rutor. В случае если у Вас заблокирован rutor или вдруг Вы не можете на него зайти, то Вы без труда сможете скачать бесплатно и без рекламы последние новинки кино, игр, сериалов и прочего у нас, на Rutor.in. Не нужно использовать прокси, чтобы зайти на рутор, достаточно воспользоваться нашим ресурсом. Все новые фильмы, игры, сериалы, книги и музыка за 2013 и 2014 годы через торрент бесплатно. Скачивайте фильмы в хорошем качестве, игры для пк, xbox, playstation без регистрации. У нас вы найдете новые Зарубежные сериалы и Русские сериалы 2013, 2014, 2015 годов. Оставайтесь с нами, качайте любимые фильмы, игры, сериалы, книги и музыку.
cron