img image001 image001 image001 image001 image001 image001 image001 image001 image001 image001 image001 image001 image001 image001 image001

Planets Sun Sun Sun
Статистика раздачи
Автор: PriZraK | Размер: 1.08 ГБ | Добавлен: 11 ноя 2016
Раздают: 33    Качают: 0
Скачать торрент
Скачать торрент
Описание торрента

СообщениеДобавлено: 11 ноя 2016 

Коллектор


Год выпуска: 2016
Страна: Россия
Производство: «Паприка Продакшн»
Жанр: Драма, триллер
Режиссёр: Алексей Красовский
В ролях: Константин Хабенский, Евгений Стычкин, Ксения Буравская, Полина Агуреева, Кирилл Плетнёв, Валентина Лукащук, Александр Тютин, Игорь Золотовицкий, Никита Тюнин, Татьяна Лазарева
Описание: Артур — мастер своего дела. Работая только с крупными должниками, он находит всю их подноготную и эффективно использует против них. Он никогда не прибегает к банальным методам, его конек — психологическая атака. Артур умеет виртуозно перевоплощаться, сбивать с толку, выводить из равновесия и так допекать своих клиентов, что они готовы вернуть все, только бы никогда больше не слышать его голос. Но однажды Артур сам становится мишенью: в сети появляется скандальное видео с его участием, и от него мгновенно отворачиваются друзья и коллеги. Под угрозой оказывается не только его репутация, но и жизнь… Теперь у коллектора есть всего одна ночь, чтобы найти того, кто загнал его в угол.

Качество: WEB-DLRip(AVC)
Продолжительность: 01:11:30
Формат: MKV
Видео кодек: AVC
Аудио кодек: AC3
Видео: 1024x428 (2.40:1), 25.000 fps, x264 ~1792 kbps avg, 0.164 bit/pixel
Аудио #1: AC3, 48 kHz, 6 ch, ~384 kbps | RUS
Дата премьеры (мир): 02 июля 2016
Дата премьеры (РФ): 06 октября 2016, «WDSSPR»

Релиз от: Rip by: TorpedoUK
x264 [info]: frame I:512 Avg QP:12.40 size: 57486
x264 [info]: frame P:23407 Avg QP:15.07 size: 20102
x264 [info]: frame B:82698 Avg QP:16.34 size: 5512
x264 [info]: consecutive B-frames: 0.7% 1.1% 3.4% 46.6% 14.9% 30.1% 1.4% 0.7% 0.3% 0.3% 0.6%
x264 [info]: mb I I16..4: 10.0% 78.0% 12.1%
x264 [info]: mb P I16..4: 0.2% 7.4% 0.4% P16..4: 29.6% 38.5% 17.7% 2.1% 0.1% skip: 4.1%
x264 [info]: mb B I16..4: 0.0% 0.2% 0.0% B16..8: 30.9% 21.3% 5.1% direct: 4.9% skip:37.5% L0:46.0% L1:44.9% BI: 9.1%
x264 [info]: 8x8 transform intra:89.1% inter:45.8%
x264 [info]: direct mvs spatial:97.8% temporal:2.2%
x264 [info]: coded y,uvDC,uvAC intra: 95.1% 85.9% 75.6% inter: 22.2% 17.5% 10.9%
x264 [info]: i16 v,h,dc,p: 24% 8% 15% 52%
x264 [info]: i8 v,h,dc,ddl,ddr,vr,hd,vl,hu: 9% 8% 17% 10% 12% 11% 11% 11% 13%
x264 [info]: i4 v,h,dc,ddl,ddr,vr,hd,vl,hu: 13% 9% 10% 9% 14% 12% 13% 10% 11%
x264 [info]: i8c dc,h,v,p: 53% 21% 14% 11%
x264 [info]: Weighted P-Frames: Y:1.3% UV:0.2%
x264 [info]: ref P L0: 42.3% 4.3% 21.2% 7.4% 7.5% 4.7% 5.1% 2.4% 2.9% 2.1% 0.1% 0.0%
x264 [info]: ref B L0: 65.0% 15.0% 7.0% 4.2% 2.8% 2.7% 1.9% 1.0% 0.5%
x264 [info]: ref B L1: 93.6% 6.4%
x264 [info]: kb/s:1792.92

Общее
Уникальный идентификатор : 195278504800507191077517888655696256425 (0x92E945A112FAE4C8BE2787D4596EDDA9)
Полное имя : D:Collector.2016.WEB-DLRip(AVC).ExKinoRay(TorpedoUK).mkv
Формат : Matroska
Версия формата : Version 2
Размер файла : 1,08 Гбайт
Продолжительность : 1 ч. 11 м.
Общий поток : 2179 Кбит/сек
Название фильма : Collector.2016.WEB-DLRip(AVC).ExKinoRay by TorpedoUK
Дата кодирования : UTC 2016-11-10 16:12:03
Программа кодирования : mkvmerge v7.8.0 ('River Man') 32bit built on Apr 3 2015 12:11:22
Библиотека кодирования : libebml v1.3.1 + libmatroska v1.4.2
Видео
Идентификатор : 2
Формат : AVC
Формат/Информация : Advanced Video Codec
Профиль формата : High@L4.1
Параметр CABAC формата : Да
Параметр ReFrames формата : 10 кадров
Идентификатор кодека : V_MPEG4/ISO/AVC
Продолжительность : 1 ч. 11 м.
Битрейт : 1792 Кбит/сек
Ширина : 1024 пикселя
Высота : 428 пикселей
Соотношение сторон : 2,40:1
Режим частоты кадров : Постоянный
Частота кадров : 25,000 кадров/сек
Цветовое пространство : YUV
Субдискретизация насыщенности : 4:2:0
Битовая глубина : 8 бит
Тип развёртки : Прогрессивная
Бит/(Пиксели*Кадры) : 0.164
Размер потока : 890 Мбайт (80%)
Библиотека кодирования : x264 core 146 r2538 121396c
Настройки программы : cabac=1 / ref=10 / deblock=1:-3:-3 / analyse=0x3:0x133 / me=umh / subme=11 / psy=1 / psy_rd=1.00:0.03 / mixed_ref=1 / me_range=48 / chroma_me=1 / trellis=2 / 8x8dct=1 / cqm=0 / deadzone=21,11 / fast_pskip=0 / chroma_qp_offset=-3 / threads=6 / lookahead_threads=1 / sliced_threads=0 / nr=0 / decimate=0 / interlaced=0 / bluray_compat=0 / constrained_intra=0 / bframes=10 / b_pyramid=2 / b_adapt=2 / b_bias=0 / direct=3 / weightb=1 / open_gop=0 / weightp=2 / keyint=240 / keyint_min=24 / scenecut=40 / intra_refresh=0 / rc_lookahead=40 / rc=2pass / mbtree=0 / bitrate=1792 / ratetol=1.0 / qcomp=0.60 / qpmin=0 / qpmax=69 / qpstep=4 / cplxblur=20.0 / qblur=0.5 / vbv_maxrate=50000 / vbv_bufsize=62500 / nal_hrd=none / filler=0 / ip_ratio=1.40 / pb_ratio=1.30 / aq=1:1.00
Default : Да
Forced : Нет
Аудио
Идентификатор : 1
Формат : AC-3
Формат/Информация : Audio Coding 3
Расширение режима : CM (complete main)
Параметр Endianness формата : Big
Идентификатор кодека : A_AC3
Продолжительность : 1 ч. 11 м.
Вид битрейта : Постоянный
Битрейт : 384 Кбит/сек
Каналы : 6 каналов
Расположение каналов : Front: L C R, Side: L R, LFE
Частота : 48,0 КГц
Битовая глубина : 16 бит
Метод сжатия : С потерями
Размер потока : 195 Мбайт (18%)
Заголовок : AC3 5.1 @ 384 kbps
Язык : Russian
Default : Да
Forced : Нет
Меню
00:00:00.000 : en:1
00:07:01.120 : en:2
00:12:06.120 : en:3
00:17:52.960 : en:4
00:24:07.360 : en:5
00:29:37.320 : en:6
00:35:13.360 : en:7
00:40:50.320 : en:8
00:46:02.960 : en:9
00:51:26.280 : en:10
00:57:49.440 : en:11
01:04:29.360 : en:12





   Похожие торренты   Торрент   Размер 
В этой теме нет новых непрочитанных сообщений. Коллектор (2016) WEB-DLRip-AVC от ExKinoRay | iTunes

31 | 0

744.55 МБ

В этой теме нет новых непрочитанных сообщений. Коллектор (2016) WEB-DLRip-AVC от ExKinoRay | iTunes

19 | 4

744.2 МБ

В этой теме нет новых непрочитанных сообщений. Коллектор (2016) WEB-DLRip | iTunes

316 | 2

1.33 ГБ

В этой теме нет новых непрочитанных сообщений. Коллектор (2016) WEB-DLRip-AVC от k.e.n | iTunes

53 | 0

1.46 ГБ

В этой теме нет новых непрочитанных сообщений. Коллектор (2016) WEB-DLRip от Generalfilm | КПК | iTunes

105 | 0

295.82 МБ

В этой теме нет новых непрочитанных сообщений. Коллектор (2016) WEB-DLRip от GeneralFilm| iTunes

32 | 0

743.82 МБ

В этой теме нет новых непрочитанных сообщений. Коллектор (2016) WEB-DLRip от Scarabey | iTunes

502 | 6

1.31 ГБ




Вы не можете начинать темы
Вы не можете отвечать на сообщения
Вы не можете редактировать свои сообщения
Вы не можете удалять свои сообщения
Вы не можете добавлять вложения

Перейти:  
Для Мосгорсуда, Роскомнадзора и рекламодателей: mosgorsud-torrent[собачка]yandex.ru
 Вход
ppkBB3cker v.2 © 2008-2014 @ PPK
[ Time : 0.052s | 16 Queries | GZIP : Off ]

Торрент трекер RUTOR.IN, Не можете зайти на rutor.org? Какой новый адрес рутор? Какое зеркало рутор? Не работает rutor.org и зеркала? Тогда наш торрент специально для вас. Rutor.in неофициальное зеркало rutor. В случае если у Вас заблокирован rutor или вдруг Вы не можете на него зайти, то Вы без труда сможете скачать бесплатно и без рекламы последние новинки кино, игр, сериалов и прочего у нас, на Rutor.in. Не нужно использовать прокси, чтобы зайти на рутор, достаточно воспользоваться нашим ресурсом. Все новые фильмы, игры, сериалы, книги и музыка за 2013 и 2014 годы через торрент бесплатно. Скачивайте фильмы в хорошем качестве, игры для пк, xbox, playstation без регистрации. У нас вы найдете новые Зарубежные сериалы и Русские сериалы 2013, 2014, 2015 годов. Оставайтесь с нами, качайте любимые фильмы, игры, сериалы, книги и музыку.
cron