img image001 image001 image001 image001 image001 image001 image001 image001 image001 image001 image001 image001 image001 image001 image001

Planets Sun Sun Sun
Статистика раздачи
Автор: PriZraK | Размер: 1.45 ГБ | Добавлен: 13 ноя 2016
Раздают: 447    Качают: 57
Скачать торрент
Скачать торрент
Описание торрента

СообщениеДобавлено: 13 ноя 2016 


Информация о фильме
Название: Можете звать меня папой
Год выпуска: 2016
Жанр: Комедия, мелодрама
Режиссер: Анарио Мамедов
В ролях: Анна Каменкова, Юрий Стоянов, Анастасия Задорожная, Роман Полянский, Сергей Букреев
О фильме:
Павел заведует детским садом, он обожает детей, а они – его. Да и в личной жизни у молодого человека всё прекрасно: избранница Вера отвечает ему полной взаимностью. И вот наступает момент, когда пора знакомиться с родителями невесты. Мамы у Веры нет, она давно умерла. Отец пару лет назад переехал из шумного города в небольшой дачный посёлок. Знакомство с потенциальным тестем проходит без осложнений, но внезапно жених предлагает Вере расстаться. Девушка пытается разобраться в ситуации. Расследование Веры приводит к неожиданным результатам: её отец – уголовник...

Страна: Россия
Студия: ООО «Маурис Филм»
Продолжительность: 01:37:11
Перевод: Не требуется (русский)
Файл
Формат: avi
Качество: WEB-DLRip
Видео: XviD build 73, 720x400 (16:9), 25.000 fps, 1929 Kbps (0.268 bit/pixel)
Звук: 48.0 kHz, AC3 2/0 ch, 192 kbps
General
Complete name : Mozhete.Zvatj.Menja.Papoj.2016.XviD.WEB-DLRip.GeneralFilm.avi
Format : AVI
Format/Info : Audio Video Interleave
File size : 1.45 GiB
Duration : 1h 37mn
Overall bit rate : 2 131 Kbps
Writing application : VirtualDubMod 1.5.10.3 | www.virtualdub-fr.org || (build 2550/release)
Writing library : VirtualDubMod build 2550/release
Video
ID : 0
Format : MPEG-4 Visual
Format profile : Advanced Simple@L5
Format settings, BVOP : 1
Format settings, QPel : No
Format settings, GMC : No warppoints
Format settings, Matrix : Custom
Codec ID : XVID
Codec ID/Hint : XviD
Duration : 1h 37mn
Bit rate : 1 929 Kbps
Width : 720 pixels
Height : 400 pixels
Display aspect ratio : 16:9
Frame rate : 25.000 fps
Color space : YUV
Chroma subsampling : 4:2:0
Bit depth : 8 bits
Scan type : Progressive
Compression mode : Lossy
Bits/(Pixel*Frame) : 0.268
Stream size : 1.32 GiB (91%)
Writing library : XviD 73
Audio
ID : 1
Format : AC-3
Format/Info : Audio Coding 3
Mode extension : CM (complete main)
Format settings, Endianness : Big
Codec ID : 2000
Duration : 1h 37mn
Bit rate mode : Constant
Bit rate : 192 Kbps
Channel(s) : 2 channels
Channel positions : Front: L R
Sampling rate : 48.0 KHz
Frame rate : 31.250 fps (1536 spf)
Compression mode : Lossy
Stream size : 134 MiB (9%)
Alignment : Split accross interleaves
Interleave, duration : 40 ms (1.00 video frame)
Interleave, preload duratio : 500 ms





Релиз от:



   Похожие торренты   Торрент   Размер 
В этой теме нет новых непрочитанных сообщений. Можете звать меня папой (2016) WEB-DLRip от GeneralFilm

186 | 22

747.08 МБ

В этой теме нет новых непрочитанных сообщений. Можете звать меня папой (2016) WEB-DLRip-AVC от Files-x

116 | 6

1.49 ГБ

В этой теме нет новых непрочитанных сообщений. Можете звать меня папой (2016) WEB-DLRip от Files-x

435 | 47

1.37 ГБ

В этой теме нет новых непрочитанных сообщений. Можете звать меня папой (2016) SATRip от Files-x

648 | 202

1.37 ГБ

В этой теме нет новых непрочитанных сообщений. Можете звать меня папой (2016) SATRip-AVC от Files-x

113 | 9

1.05 ГБ

В этой теме нет новых непрочитанных сообщений. Можете звать меня папой (2016) WEB-DL 1080p от Files-x

1019 | 169

2.18 ГБ

В этой теме нет новых непрочитанных сообщений. Сергей Устинов - Можете на меня положиться (2011) MP3

389 | 14

447.94 МБ




Вы не можете начинать темы
Вы не можете отвечать на сообщения
Вы не можете редактировать свои сообщения
Вы не можете удалять свои сообщения
Вы не можете добавлять вложения

Перейти:  
Для Мосгорсуда, Роскомнадзора и рекламодателей: mosgorsud-torrent[собачка]yandex.ru
 Вход
ppkBB3cker v.2 © 2008-2014 @ PPK
[ Time : 0.016s | 13 Queries | GZIP : Off ]
CGP output time : 0.020s | 5 Queries | GZIP : Off

Торрент трекер RUTOR.IN, Не можете зайти на rutor.org? Какой новый адрес рутор? Какое зеркало рутор? Не работает rutor.org и зеркала? Тогда наш торрент специально для вас. Rutor.in неофициальное зеркало rutor. В случае если у Вас заблокирован rutor или вдруг Вы не можете на него зайти, то Вы без труда сможете скачать бесплатно и без рекламы последние новинки кино, игр, сериалов и прочего у нас, на Rutor.in. Не нужно использовать прокси, чтобы зайти на рутор, достаточно воспользоваться нашим ресурсом. Все новые фильмы, игры, сериалы, книги и музыка за 2013 и 2014 годы через торрент бесплатно. Скачивайте фильмы в хорошем качестве, игры для пк, xbox, playstation без регистрации. У нас вы найдете новые Зарубежные сериалы и Русские сериалы 2013, 2014, 2015 годов. Оставайтесь с нами, качайте любимые фильмы, игры, сериалы, книги и музыку.