img image001 image001 image001 image001 image001 image001 image001 image001 image001 image001 image001 image001 image001 image001 image001

Planets Sun Sun Sun
Статистика раздачи
Автор: PriZraK | Размер: 1.56 ГБ | Добавлен: 13 ноя 2016
Раздают: 258    Качают: 30
Скачать торрент
Скачать торрент
Описание торрента

СообщениеДобавлено: 13 ноя 2016 

Информация о фильме
Название: Ученик
Год выпуска: 2016
Страна: Россия
Жанр: драма

Перевод: Оригинал [iTunes]
Продолжительность: 01:53:02

Режиссер: Кирилл Серебренников
В ролях: Виктория Исакова (Елена Львовна Краснова), Петр Скворцов (Вениамин Южин), Александр Горчилин (Григорий Зайцев), Юлия Ауг (Инга Южина), Александра Ревенко (Лидия Ткачева), Антон Васильев (Олег Иванович Сельненко), Николай Рощин (Отец Всеволод), Светлана Брагарник (Людмила Ивановна Стукалина), Ирина Рудницкая (Ирина Петровна), Марина Клещева


Описание:
Мир устроен неправильно. Мир погряз во зле. Много лжи, вранья, лицемерия. Добродетель поругана. Вера утрачена. Главный герой, мальчик Вениамин, считает, что знает все о моральных нормах. Как их надо соблюдать, от кого их надо защищать, что такое хорошо и что такое плохо. Его поведение для окружающих становится серьезным испытанием. Где граница между моралью и нетерпимостью, свободой и вседозволенностью, проповедью и терроризмом, религией и манипуляцией?

Рейтинг:


Качество: WEB-DLRip-AVC
Формат: MKV
Видео: AVC, 1024x384 (2.667), 1590 kbps, 25 fps, 0,162 bpp
Аудио: русский / AC3 / 5.1 / 48 kHz / 384 kbps / ||
Семпл


Релиз от: Rip by
General
Unique ID : 251444719630841953528384836726306754669 (0xBD2A7DD241A8265CA2F9CC9448E9D06D)
Complete name : E:The.Student.2016.WEB-DLRip-AVC.by.White Smoke.R.G.Resident.mkv
Format : Matroska
Format version : Version 4 / Version 2
File size : 1.56 GiB
Duration : 1 h 53 min
Overall bit rate : 1 974 kb/s
Movie name : The.Student.2016.WEB-DLRip-AVC.by.White Smoke.R.G.Resident.mkv
Encoded date : UTC 2016-11-12 09:41:53
Writing application : mkvmerge v6.8.0 ('Theme for Great Cities') 64bit built on Mar 2 2014 21:34:26
Writing library : libebml v1.3.0 + libmatroska v1.4.1
Video
ID : 1
Format : AVC
Format/Info : Advanced Video Codec
Format profile : High@L4.1
Format settings, CABAC : Yes
Format settings, ReFrames : 12 frames
Codec ID : V_MPEG4/ISO/AVC
Duration : 1 h 53 min
Bit rate : 1 590 kb/s
Width : 1 024 pixels
Height : 384 pixels
Display aspect ratio : 2.667
Frame rate mode : Constant
Frame rate : 25.000 FPS
Color space : YUV
Chroma subsampling : 4:2:0
Bit depth : 8 bits
Scan type : Progressive
Bits/(Pixel*Frame) : 0.162
Stream size : 1.22 GiB (79%)
Writing library : x264 core 148 r2638 7599210
Encoding settings : cabac=1 / ref=12 / deblock=1:-3:-3 / analyse=0x3:0x113 / me=umh / subme=9 / psy=1 / psy_rd=1.00:0.00 / mixed_ref=1 / me_range=32 / chroma_me=1 / trellis=2 / 8x8dct=1 / cqm=0 / deadzone=21,11 / fast_pskip=1 / chroma_qp_offset=-2 / threads=6 / lookahead_threads=1 / sliced_threads=0 / nr=0 / decimate=1 / interlaced=0 / bluray_compat=0 / constrained_intra=0 / bframes=12 / b_pyramid=2 / b_adapt=2 / b_bias=10 / direct=1 / weightb=0 / open_gop=0 / weightp=2 / keyint=250 / keyint_min=25 / scenecut=40 / intra_refresh=0 / rc_lookahead=40 / rc=2pass / mbtree=1 / bitrate=1590 / ratetol=1.0 / qcomp=0.85 / qpmin=0 / qpmax=69 / qpstep=4 / cplxblur=20.0 / qblur=0.5 / ip_ratio=1.40 / aq=1:1.00
Language : English
Default : Yes
Forced : No
Audio
ID : 2
Format : AC-3
Format/Info : Audio Coding 3
Mode extension : CM (complete main)
Format settings, Endianness : Big
Codec ID : A_AC3
Duration : 1 h 53 min
Bit rate mode : Constant
Bit rate : 384 kb/s
Channel(s) : 6 channels
Channel positions : Front: L C R, Side: L R, LFE
Sampling rate : 48.0 kHz
Frame rate : 31.250 FPS (1536 spf)
Compression mode : Lossy
Stream size : 310 MiB (19%)
Title : AC3 5.1 @ 384 kbps
Language : Russian
Default : Yes
Forced : No




   Похожие торренты   Торрент   Размер 
В этой теме нет новых непрочитанных сообщений. Ученик (2016) WEB-DLRip от MegaPeer | iTunes

245 | 3

746.37 МБ

В этой теме нет новых непрочитанных сообщений. Ученик (2016) WEB-DLRip от Generalfilm | КПК | iTunes

88 | 12

470.76 МБ

В этой теме нет новых непрочитанных сообщений. Ученик (2016) WEB-DLRip от Scarabey | iTunes

696 | 54

1.45 ГБ

В этой теме нет новых непрочитанных сообщений. Ученик (2016) WEB-DLRip от MegaPeer | iTunes

2512 | 62

1.46 ГБ

В этой теме нет новых непрочитанных сообщений. Дуэлянт (2016) WEB-DLRip-AVC от R.G.Resident | iTunes

739 | 36

1.17 ГБ

В этой теме нет новых непрочитанных сообщений. Все о мужчинах (2016) WEB-DLRip-AVC от R.G.Resident | iTunes

44 | 8

1.46 ГБ

В этой теме нет новых непрочитанных сообщений. Не дыши / Don't Breathe (2016) WEB-DLRip-AVC от R.G.Resident | iTunes

122 | 32

1.17 ГБ




Вы не можете начинать темы
Вы не можете отвечать на сообщения
Вы не можете редактировать свои сообщения
Вы не можете удалять свои сообщения
Вы не можете добавлять вложения

Перейти:  
Для Мосгорсуда, Роскомнадзора и рекламодателей: mosgorsud-torrent[собачка]yandex.ru
 Вход
ppkBB3cker v.2 © 2008-2014 @ PPK
[ Time : 0.865s | 16 Queries | GZIP : Off ]

Торрент трекер RUTOR.IN, Не можете зайти на rutor.org? Какой новый адрес рутор? Какое зеркало рутор? Не работает rutor.org и зеркала? Тогда наш торрент специально для вас. Rutor.in неофициальное зеркало rutor. В случае если у Вас заблокирован rutor или вдруг Вы не можете на него зайти, то Вы без труда сможете скачать бесплатно и без рекламы последние новинки кино, игр, сериалов и прочего у нас, на Rutor.in. Не нужно использовать прокси, чтобы зайти на рутор, достаточно воспользоваться нашим ресурсом. Все новые фильмы, игры, сериалы, книги и музыка за 2013 и 2014 годы через торрент бесплатно. Скачивайте фильмы в хорошем качестве, игры для пк, xbox, playstation без регистрации. У нас вы найдете новые Зарубежные сериалы и Русские сериалы 2013, 2014, 2015 годов. Оставайтесь с нами, качайте любимые фильмы, игры, сериалы, книги и музыку.
cron