img image001 image001 image001 image001 image001 image001 image001 image001 image001 image001 image001 image001 image001 image001 image001

Planets Sun Sun Sun
Статистика раздачи
Автор: PriZraK | Размер: 1.09 ГБ | Добавлен: 15 ноя 2016
Раздают: 19    Качают: 1
Скачать торрент
Скачать торрент
Описание торрента

СообщениеДобавлено: 15 ноя 2016 

Страна: СССР
Производство: Ташкентская киностудия
Жанр: драма, биография
Год выпуска: 1956
Продолжительность: 01:17:24
Перевод: Не требуется
Cубтитры: нет
Оригинальная аудиодорожка: русский
Режиссер: Камил Ярматов
В ролях:
Марат Арипов, Тулкун Таджиев, Аббас Бакиров, Мухаммеджан Касымов, Раззак Хамраев, Обид Джалилов, Рахим Пирмухамедов, Кудрат Ходжаев, Алим Ходжаев...
Полный список актёров
Описание:
Цветной фильм посвящен философу, врачу, ученому Востока и поэту Абу-Али Ибн-Сине, жившему в Бухаре в 10 веке и известному в Европе под именем Авиценны.
Первый раз фильм был восстановлен в 1964 году, затем - в 1979 на киностудии им. М. Горького (в черно-белом варианте).





Источник: DVB
Качество видео: SATRip
Формат видео: AVI
Видео: 704x528 (4:3), 25 fps, XviD ~ 1808 kbps avg, 0.195 bit/pixel
Аудио: 48 kHz, Dolby Digital AC3 2.0, 192 kbps
Раздача от:
Общее
Полное имя : Avicenna.1956.SATRip_[New-team]_by_AVP_Studio.avi
Формат : AVI
Формат/Информация : Audio Video Interleave
Размер файла : 1,09 Гбайт
Продолжительность : 1 ч. 17 м.
Общий поток : 2012 Кбит/сек
Видео
Идентификатор : 0
Формат : MPEG-4 Visual
Профиль формата : Advanced Simple@L5
Параметр BVOP формата : 1
Параметр QPel формата : Нет
Параметр GMC формата : Без точки перехода
Параметр матрицы формата : Выборочная
Идентификатор кодека : XVID
Идентификатор кодека/Подсказка : XviD
Продолжительность : 1 ч. 17 м.
Битрейт : 1808 Кбит/сек
Ширина : 704 пикселя
Высота : 528 пикселей
Соотношение сторон : 4:3
Частота кадров : 25,000 кадров/сек
Цветовое пространство : YUV
Субдискретизация насыщенности : 4:2:0
Битовая глубина : 8 бит
Тип развёртки : Прогрессивная
Метод сжатия : С потерями
Бит/(Пиксели*Кадры) : 0.195
Размер потока : 1001 Мбайт (90%)
Библиотека кодирования : XviD 1.2.1 (UTC 2008-12-04)
Аудио
Идентификатор : 1
Формат : AC-3
Формат/Информация : Audio Coding 3
Расширение режима : CM (complete main)
Параметр Endianness формата : Big
Идентификатор кодека : 2000
Продолжительность : 1 ч. 17 м.
Вид битрейта : Постоянный
Битрейт : 192 Кбит/сек
Каналы : 2 канала
Расположение каналов : Front: L R
Частота : 48,0 КГц
Частота кадров : 31,250 кадров/сек (1536 spf)
Битовая глубина : 16 бит
Метод сжатия : С потерями
Размер потока : 106 Мбайт (10%)
Выравнивание : Соединение по промежуткам
Продолжительность промежутка : 32 мс. (0,80 видеокадр)





   Похожие торренты   Торрент   Размер 
В этой теме нет новых непрочитанных сообщений. Авиценна (1956) SATRip от New-Team

11 | 2

746.19 МБ

В этой теме нет новых непрочитанных сообщений. Авиценна (1956) SATRip-AVC от New-Team

8 | 1

1.09 ГБ

В этой теме нет новых непрочитанных сообщений. Не та, так эта (1956) SATRip-AVC от New-Team

8 | 3

1.09 ГБ

В этой теме нет новых непрочитанных сообщений. Не та, так эта (1956) SATRip от New-Team

4 | 2

1.09 ГБ

В этой теме нет новых непрочитанных сообщений. Две жизни (1956) SATRip от New-Team

32 | 2

745.21 МБ

В этой теме нет новых непрочитанных сообщений. Наш двор (1956) SATRip от New-Team

23 | 6

1.09 ГБ

В этой теме нет новых непрочитанных сообщений. Наш двор (1956) SATRip-AVC от New-Team

20 | 2

1.09 ГБ




Вы не можете начинать темы
Вы не можете отвечать на сообщения
Вы не можете редактировать свои сообщения
Вы не можете удалять свои сообщения
Вы не можете добавлять вложения

Перейти:  
Для Мосгорсуда, Роскомнадзора и рекламодателей: mosgorsud-torrent[собачка]yandex.ru
 Вход
ppkBB3cker v.2 © 2008-2014 @ PPK
[ Time : 0.582s | 16 Queries | GZIP : On ]

Торрент трекер RUTOR.IN, Не можете зайти на rutor.org? Какой новый адрес рутор? Какое зеркало рутор? Не работает rutor.org и зеркала? Тогда наш торрент специально для вас. Rutor.in неофициальное зеркало rutor. В случае если у Вас заблокирован rutor или вдруг Вы не можете на него зайти, то Вы без труда сможете скачать бесплатно и без рекламы последние новинки кино, игр, сериалов и прочего у нас, на Rutor.in. Не нужно использовать прокси, чтобы зайти на рутор, достаточно воспользоваться нашим ресурсом. Все новые фильмы, игры, сериалы, книги и музыка за 2013 и 2014 годы через торрент бесплатно. Скачивайте фильмы в хорошем качестве, игры для пк, xbox, playstation без регистрации. У нас вы найдете новые Зарубежные сериалы и Русские сериалы 2013, 2014, 2015 годов. Оставайтесь с нами, качайте любимые фильмы, игры, сериалы, книги и музыку.