img image001 image001 image001 image001 image001 image001 image001 image001 image001 image001 image001 image001 image001 image001 image001

Planets Sun Sun Sun
Статистика раздачи
Автор: PriZraK | Размер: 1.09 ГБ | Добавлен: 16 ноя 2016
Раздают: 21    Качают: 3
Скачать торрент
Скачать торрент
Описание торрента

СообщениеДобавлено: 16 ноя 2016 

Страна: СССР
Производство: Ленфильм
Жанр: драма, военный, биография
Год выпуска: 1956
Продолжительность: 01:37:13
Перевод: Не требуется
Cубтитры: нет
Оригинальная аудиодорожка: русский
Режиссер: Михаил Шапиро
В ролях:
Евгений Матвеев, Игорь Горбачёв, Маргарита Юрьева, Майя Блинова, Нина Мамаева, Давид Волосов, Михаил Екатерининский, Ефим Копелян, Владимир Косарев, Игнат Лейрер, Георгий Самойлов, Александр Соколов, Глеб Флоринский, Антоний Ходурский, Виктор Чекмарёв, Герман Хованов...
Полный список актёров
Описание:
По одноименному роману Даниила Гранина.
Во время второй мировой войны в поисках места повреждения телефонной линии погибает друг инженера Лобанова. Наступают мирные дни. Лобанов отказывается от работы в НИИ и устраивается на опытный завод, где по его мнению есть все возможности для создания прибора, определяющего на расстоянии повреждения в электрических кабелях. Молодой ученый зачисляется заведующим лаборатории и пока не предполагает, что основные силы будут направлены на борьбу с бюрократизмом и очковтирательством.





Источник: DVB
Качество видео: SATRip-AVC
Формат видео: MKV
Видео: 680->752x564 (4:3), 25 fps, H264 ~ 1409 kbps avg, 0.147 bit/pixel
Аудио: 48 kHz, Dolby Digital AC3 2.0, 192 kbps
Раздача от:
Общее
Полное имя : Iskateli.1956.SATRip-AVC_[New-team]_by_AVP_Studio.mkv
Формат : Matroska
Версия формата : Version 2
Размер файла : 1,09 Гбайт
Продолжительность : 1 ч. 37 м.
Общий поток : 1603 Кбит/сек
Дата кодирования : UTC 2016-11-10 17:18:37
Программа кодирования : mkvmerge v6.1.0 ('Old Devil') built on Mar 4 2013 09:10:42
Библиотека кодирования : libebml v1.3.0 + libmatroska v1.4.0
Видео
Идентификатор : 1
Формат : AVC
Формат/Информация : Advanced Video Codec
Профиль формата : High@L4.1
Параметр CABAC формата : Да
Параметр ReFrames формата : 10 кадров
Идентификатор кодека : V_MPEG4/ISO/AVC
Продолжительность : 1 ч. 37 м.
Битрейт : 1409 Кбит/сек
Ширина : 680 пикселей
Высота : 564 пикселя
Соотношение сторон : 4:3
Режим частоты кадров : Постоянный
Частота кадров : 25,000 кадров/сек
Цветовое пространство : YUV
Субдискретизация насыщенности : 4:2:0
Битовая глубина : 8 бит
Тип развёртки : Прогрессивная
Бит/(Пиксели*Кадры) : 0.147
Размер потока : 959 Мбайт (86%)
Библиотека кодирования : x264 core 148 r2597 e86f3a1
Настройки программы : cabac=1 / ref=10 / deblock=1:-2:-1 / analyse=0x3:0x113 / me=umh / subme=10 / psy=1 / psy_rd=1.00:0.00 / mixed_ref=1 / me_range=32 / chroma_me=1 / trellis=2 / 8x8dct=1 / cqm=0 / deadzone=21,11 / fast_pskip=1 / chroma_qp_offset=-2 / threads=6 / lookahead_threads=1 / sliced_threads=0 / nr=0 / decimate=0 / interlaced=0 / bluray_compat=0 / constrained_intra=0 / bframes=8 / b_pyramid=2 / b_adapt=2 / b_bias=0 / direct=3 / weightb=1 / open_gop=0 / weightp=2 / keyint=250 / keyint_min=25 / scenecut=40 / intra_refresh=0 / rc=2pass / mbtree=0 / bitrate=1409 / ratetol=1.0 / qcomp=0.60 / qpmin=0 / qpmax=69 / qpstep=4 / cplxblur=20.0 / qblur=0.5 / ip_ratio=1.40 / pb_ratio=1.30 / aq=1:1.00
Default : Да
Forced : Нет
Аудио
Идентификатор : 2
Формат : AC-3
Формат/Информация : Audio Coding 3
Расширение режима : CM (complete main)
Параметр Endianness формата : Big
Идентификатор кодека : A_AC3
Продолжительность : 1 ч. 37 м.
Вид битрейта : Постоянный
Битрейт : 192 Кбит/сек
Каналы : 2 канала
Расположение каналов : Front: L R
Частота : 48,0 КГц
Частота кадров : 31,250 кадров/сек (1536 spf)
Битовая глубина : 16 бит
Метод сжатия : С потерями
Размер потока : 134 Мбайт (12%)
Default : Да
Forced : Нет





   Похожие торренты   Торрент   Размер 
В этой теме нет новых непрочитанных сообщений. Искатели (1956) SATRip от New-Team

1 | 4

744.88 МБ

В этой теме нет новых непрочитанных сообщений. Искатели (1956) SATRip от New-Team

6 | 0

1.09 ГБ

В этой теме нет новых непрочитанных сообщений. Искатели / В поисках / The Searchers (1956) BDRip от HQCLUB

259 | 12

2.18 ГБ

В этой теме нет новых непрочитанных сообщений. В поисках / Искатели / The Searchers (1956) HDRip от HQ-ViDEO

28 | 4

2.18 ГБ

В этой теме нет новых непрочитанных сообщений. Не та, так эта (1956) SATRip от New-Team

0 | 0

1.09 ГБ

В этой теме нет новых непрочитанных сообщений. Не та, так эта (1956) SATRip-AVC от New-Team

3 | 0

1.09 ГБ

В этой теме нет новых непрочитанных сообщений. Две жизни (1956) SATRip от New-Team

6 | 0

745.21 МБ




Вы не можете начинать темы
Вы не можете отвечать на сообщения
Вы не можете редактировать свои сообщения
Вы не можете удалять свои сообщения
Вы не можете добавлять вложения

Перейти:  
Для Мосгорсуда, Роскомнадзора и рекламодателей: mosgorsud-torrent[собачка]yandex.ru
 Вход
ppkBB3cker v.2 © 2008-2014 @ PPK
[ Time : 0.083s | 15 Queries | GZIP : Off ]

Торрент трекер RUTOR.IN, Не можете зайти на rutor.org? Какой новый адрес рутор? Какое зеркало рутор? Не работает rutor.org и зеркала? Тогда наш торрент специально для вас. Rutor.in неофициальное зеркало rutor. В случае если у Вас заблокирован rutor или вдруг Вы не можете на него зайти, то Вы без труда сможете скачать бесплатно и без рекламы последние новинки кино, игр, сериалов и прочего у нас, на Rutor.in. Не нужно использовать прокси, чтобы зайти на рутор, достаточно воспользоваться нашим ресурсом. Все новые фильмы, игры, сериалы, книги и музыка за 2013 и 2014 годы через торрент бесплатно. Скачивайте фильмы в хорошем качестве, игры для пк, xbox, playstation без регистрации. У нас вы найдете новые Зарубежные сериалы и Русские сериалы 2013, 2014, 2015 годов. Оставайтесь с нами, качайте любимые фильмы, игры, сериалы, книги и музыку.