img image001 image001 image001 image001 image001 image001 image001 image001 image001 image001 image001 image001 image001 image001 image001

Planets Sun Sun Sun
Статистика раздачи
Автор: PriZraK | Размер: 1.46 ГБ | Добавлен: 16 ноя 2016
Раздают: 23    Качают: 1
Скачать торрент
Скачать торрент
Описание торрента

СообщениеДобавлено: 16 ноя 2016 




Информация о фильме
Название: Курьер
Год выхода: 1986
Жанр: драма, мелодрама, комедия
Режиссер: Карен Шахназаров
В ролях: Федор Дунаевский, Анастасия Немоляева, Олег Басилашвили, Инна Чурикова, Светлана Крючкова, Александр Панкратов-Черный, Владимир Меньшов, Алевтина Евдокимова, Евдокия Урусова, Владимир Смирнов
О фильме:
Выпускник школы Иван, дожидаясь призыва в армию, работает курьером в редакции. Окружающие его солидные взрослые люди с трудом приспосабливаются к удивительной способности этого парня любое событие превратить в невероятное происшествие — порой уморительно веселое, а, подчас, и непоправимо грустное…
Примечание: Полная реставрация изображения и звука. Исходные киноматериалы подготовлены Госфильмофондом России. Покадровая цифровая реставрация изображения, ремастеринг звука и авторинг проведены объединением «Крупный план».

Выпущено: Мосфильм
Продолжительность: 01:27:20
Перевод: оригинал
Файл
Кодек: x264
Качество: HDRip-AVC
Видео: 1092x464 (2,35:1), 23.976 fps, ~1930 kbps
Звук: 48 kHz, AC-3, 6 ch, 448 kbps


General
Unique ID : 196800571558406379943317616263543174682 (0x940E695070F48BAD001F20A1099CB61A)
Complete name : D:КИНОКурьер.(1986).HDRIP-AVC.[-=DoMiNo=-].mkv
Format : Matroska
Format version : Version 4 / Version 2
File size : 1.46 GiB
Duration : 1 h 28 min
Overall bit rate : 2 353 kb/s
Movie name : Курьер
Deion : Выпускник школы Иван, дожидаясь призыва в армию, работает курьером в редакции. Окружающие его солидные взрослые люди с трудом приспосабливаются к удивительной способности этого парня любое событие превратить в невероятное происшествие — порой уморительно веселое, а, подчас, и непоправимо грустное…
Writing application : XviD4PSP 7.0.318 DAILY
Writing library : Lavf57.41.100 / Lavf57.41.100
Attachments : poster.jpg
ACTORS : Федор Дунаевский, Анастасия Немоляева, Олег Басилашвили, Инна Чурикова, Светлана Крючкова, Александр Панкратов-Черный, Владимир Меньшов, Алевтина Евдокимова, Евдокия Урусова, Владимир Смирнов, Андрей Вертоградов, Алика Смехова, Сергей Чонишвили, Лариса Курдюмова, Ольга Калмыкова, Элеонора Зубкова, Олимпиада Калмыкова, Николай Карнаухов, Вера Сотникова
COMPOSER : Эдуард Артемьев
COUNTRY : СССР
DATE : 1986
DIRECTOR : Карен Шахназаров
ENCODING_INFO : MATROSKA,WEBM > MKV / H264 > X264 VBR-2P 1930kbps Произвольный / AC3 > COPY
GENRE : драма, мелодрама, комедия
HD_VIDEO : 1
IMDB_RATING : 8.10
ITUNEXTC : ru-movie|16+|375|
MEDIA_TYPE : 9
PRODUCER : Владимир Клименко
RATING : 8.036
WRITER : Александр Бородянский, Карен Шахназаров
Video
ID : 1
Format : AVC
Format/Info : Advanced Video Codec
Format profile : High@L4.1
Format settings, CABAC : Yes
Format settings, ReFrames : 12 frames
Codec ID : V_MPEG4/ISO/AVC
Duration : 1 h 28 min
Bit rate : 1 930 kb/s
Width : 1 092 pixels
Height : 464 pixels
Display aspect ratio : 2.35:1
Frame rate mode : Constant
Frame rate : 23.976 (24000/1001) FPS
Color space : YUV
Chroma subsampling : 4:2:0
Bit depth : 8 bits
Scan type : Progressive
Bits/(Pixel*Frame) : 0.159
Stream size : 1.15 GiB (79%)
Title : RIP_by_-=DoMiNo=-
Writing library : x264 core 148 r2721M 72d53ab
Encoding settings : cabac=1 / ref=12 / deblock=1:-3:-3 / analyse=0x3:0x133 / me=umh / subme=11 / psy=1 / psy_rd=1.00:0.10 / mixed_ref=1 / me_range=32 / chroma_me=1 / trellis=2 / 8x8dct=1 / cqm=0 / deadzone=21,11 / fast_pskip=0 / chroma_qp_offset=-3 / threads=5 / lookahead_threads=1 / sliced_threads=0 / nr=0 / decimate=1 / interlaced=0 / bluray_compat=0 / constrained_intra=0 / bframes=11 / b_pyramid=2 / b_adapt=2 / b_bias=0 / direct=3 / weightb=1 / open_gop=0 / weightp=2 / keyint=230 / keyint_min=23 / scenecut=40 / intra_refresh=0 / rc_lookahead=60 / rc=2pass / mbtree=1 / bitrate=1930 / ratetol=1.0 / qcomp=0.70 / qpmin=0 / qpmax=69 / qpstep=4 / cplxblur=20.0 / qblur=0.5 / ip_ratio=1.40 / aq=1:1.00
Language : Russian
Default : Yes
Forced : No
DURATION : 01:27:20.569000000
Audio
ID : 2
Format : AC-3
Format/Info : Audio Coding 3
Mode extension : CM (complete main)
Format settings, Endianness : Big
Codec ID : A_AC3
Duration : 1 h 28 min
Bit rate mode : Constant
Bit rate : 448 kb/s
Channel(s) : 6 channels
Channel positions : Front: L C R, Side: L R, LFE
Sampling rate : 48.0 kHz
Frame rate : 31.250 FPS (1536 spf)
Bit depth : 16 bits
Compression mode : Lossy
Stream size : 284 MiB (19%)
Language : Russian
Default : Yes
Forced : No
DURATION : 01:28:37.824000000
Menu
00:00:00.000 : :Глава 1
00:06:02.814 : :Глава 2
00:14:20.388 : :Глава 3
00:22:06.864 : :Глава 4
00:29:53.340 : :Глава 5
00:37:19.083 : :Глава 6
00:45:26.291 : :Глава 7
00:52:52.035 : :Глава 8
01:01:09.609 : :Глава 9
01:09:16.817 : :Глава 10
01:17:44.757 : :Глава 11





   Похожие торренты   Торрент   Размер 
В этой теме нет новых непрочитанных сообщений. Курьер (1986) HDRip от Kaztorrents

17 | 0

746.55 МБ

В этой теме нет новых непрочитанных сообщений. Курьер (1986) Blu-Ray

1 | 5

21.67 ГБ

В этой теме нет новых непрочитанных сообщений. Курьер (1986) DVDRip

138 | 18

699.73 МБ

В этой теме нет новых непрочитанных сообщений. Курьер (1986) BDRip от HQ-ViDEO

10 | 5

1.45 ГБ

В этой теме нет новых непрочитанных сообщений. Курьер (1986) BDRip от HQCLUB

44 | 6

1.45 ГБ

В этой теме нет новых непрочитанных сообщений. Курьер (1986) BDRip 1080p

27 | 9

4.37 ГБ

В этой теме нет новых непрочитанных сообщений. Курьер (1986) BDRip от MediaClub | КПК

42 | 4

388.42 МБ




Вы не можете начинать темы
Вы не можете отвечать на сообщения
Вы не можете редактировать свои сообщения
Вы не можете удалять свои сообщения
Вы не можете добавлять вложения

Перейти:  
Для Мосгорсуда, Роскомнадзора и рекламодателей: mosgorsud-torrent[собачка]yandex.ru
 Вход
ppkBB3cker v.2 © 2008-2014 @ PPK
[ Time : 0.019s | 15 Queries | GZIP : Off ]
CGP output time : 0.083s | 7 Queries | GZIP : Off

Торрент трекер RUTOR.IN, Не можете зайти на rutor.org? Какой новый адрес рутор? Какое зеркало рутор? Не работает rutor.org и зеркала? Тогда наш торрент специально для вас. Rutor.in неофициальное зеркало rutor. В случае если у Вас заблокирован rutor или вдруг Вы не можете на него зайти, то Вы без труда сможете скачать бесплатно и без рекламы последние новинки кино, игр, сериалов и прочего у нас, на Rutor.in. Не нужно использовать прокси, чтобы зайти на рутор, достаточно воспользоваться нашим ресурсом. Все новые фильмы, игры, сериалы, книги и музыка за 2013 и 2014 годы через торрент бесплатно. Скачивайте фильмы в хорошем качестве, игры для пк, xbox, playstation без регистрации. У нас вы найдете новые Зарубежные сериалы и Русские сериалы 2013, 2014, 2015 годов. Оставайтесь с нами, качайте любимые фильмы, игры, сериалы, книги и музыку.