img image001 image001 image001 image001 image001 image001 image001 image001 image001 image001 image001 image001 image001 image001 image001

Planets Sun Sun Sun
Статистика раздачи
Автор: PriZraK | Размер: 845.83 МБ | Добавлен: 17 ноя 2016
Раздают: 5    Качают: 0
Скачать торрент
Скачать торрент
Описание торрента

СообщениеДобавлено: 17 ноя 2016 


Информация о фильме
Название: Лето в веснушках
Оригинальное название: Strazdanota vasara
Год выхода: 1988
Жанр: драма, семейный
Режиссер: Бронюс Талачка
В ролях: Аста Эйниките, Нийоле Лепешкайте, Харольдас Танкявичюс, Сакалас Уждавинис, Леонардас Зельчюс, Илона Бальсите, Юозас Ярушявичюс, Викторас Валашинас, Таурас Чижас, Витаутас Канцлерис
О фильме:
В основе лиричного, весёлого фильма - летние приключения десятилетнего мальчика Адулиса Бабарскаса, который живёт в деревне с матерью и старшим братом Раполасом. Адулис сочувствует дружбе брата с соседкой Живиле. Когда же Раполас уходит в армию, за Живиле начинает ухаживать молодой лесничий Угнюс. Адулис пишет об этом брату. Приехав в отпуск, Раполас, к великому удивлению Адулиса, подружился с Угнюсом, а когда Живиле уезжает в город, провожает её только Адулис. Обманчив и необъясним мир взрослых, приходит к выводу мальчик.
По мотивам повести Бронюса Бушмы "Хорёк в силках".

Производство: СССР / Литовская телестудия
Продолжительность: 01:17:45
Перевод: любительский (двухголосый закадровый) [Levelin]
Файл
Качество: TVRip-AVC
Формат: MKV
Видео: MPEG-4 AVC, 720x576 (5:4), 25.000 fps, 1200 kbps, 0.116 bit/pixel
Аудио #1: русский, MP3 2.0, 48 kHz, 192 kbps
Аудио #2: литовский, MP3 2.0, 44.1 kHz, 128 kbps
Субтитры: русские [Оксана Добрыня] вшитые отключаемые
Формат : Matroska
Версия формата : Version 4 / Version 2
Размер файла : 846 Мбайт
Продолжительность : 1 ч. 17 м.
Общий поток : 1521 Кбит/сек
Дата кодирования : UTC 2016-11-16 00:47:10
Программа кодирования : mkvmerge v9.4.2 ('So High') 64bit
Библиотека кодирования : libebml v1.3.4 + libmatroska v1.4.5
DURATION : 01:11:26.570000000
NUMBER_OF_FRAMES : 504
NUMBER_OF_BYTES : 28987
_STATISTICS_WRITING_APP : mkvmerge v9.4.2 ('So High') 64bit
_STATISTICS_WRITING_DATE_UTC : 2016-11-16 00:47:10
_STATISTICS_TAGS : BPS DURATION NUMBER_OF_FRAMES NUMBER_OF_BYTES
Видео
Идентификатор : 1
Формат : AVC
Формат/Информация : Advanced Video Codec
Профиль формата : High@L3
Параметр CABAC формата : Да
Параметр ReFrames формата : 2 кадра
Идентификатор кодека : V_MPEG4/ISO/AVC
Продолжительность : 1 ч. 17 м.
Вид битрейта : Постоянный
Битрейт : 1200 Кбит/сек
Ширина : 720 пикселей
Высота : 576 пикселей
Соотношение сторон : 5:4
Режим частоты кадров : Постоянный
Частота кадров : 25,000 кадров/сек
Стандарт вещания : PAL
Цветовое пространство : YUV
Субдискретизация насыщенности : 4:2:0
Битовая глубина : 8 бит
Тип развёртки : Прогрессивная
Бит/(Пиксели*Кадры) : 0.116
Размер потока : 651 Мбайт (77%)
Default : Да
Forced : Нет
Цветовой диапазон : Limited
Основные цвета : BT.601 PAL
Характеристики трансфера : BT.470 System B, BT.470 System G
Коэффициенты матрицы : BT.601
Аудио #1
Идентификатор : 2
Формат : MPEG Audio
Версия формата : Version 1
Профиль формата : Layer 3
Идентификатор кодека : A_MPEG/L3
Идентификатор кодека/Подсказка : MP3
Продолжительность : 1 ч. 17 м.
Вид битрейта : Постоянный
Битрейт : 192 Кбит/сек
Каналы : 2 канала
Частота : 48,0 КГц
Метод сжатия : С потерями
Размер потока : 107 Мбайт (13%)
Язык : Russian
Default : Да
Forced : Нет
Аудио #2
Идентификатор : 3
Формат : MPEG Audio
Версия формата : Version 1
Профиль формата : Layer 3
Идентификатор кодека : A_MPEG/L3
Идентификатор кодека/Подсказка : MP3
Продолжительность : 1 ч. 17 м.
Вид битрейта : Постоянный
Битрейт : 128 Кбит/сек
Каналы : 2 канала
Частота : 44,1 КГц
Метод сжатия : С потерями
Размер потока : 71,2 Мбайт (8%)
Язык : Lithuanian
Default : Нет
Forced : Нет
Текст
Идентификатор : 4
Формат : UTF-8
Идентификатор кодека : S_TEXT/UTF8
Идентификатор кодека/Информация : UTF-8 Plain Text
Язык : Russian
Default : Да
Forced : Нет
Перевод: Оксана Добрыня
Озвучание: проект Levelin
Cоздание субтитров и организация релиза: Minhers76
Благодарность johnnyleo за самое деятельное участие в проекте
Релиз:



   Похожие торренты   Торрент   Размер 
В этой теме нет новых непрочитанных сообщений. Лето Сангайле / Sangailes vasara (2015) DVDRip | L1

54 | 4

1.46 ГБ

В этой теме нет новых непрочитанных сообщений. Лето Сангайле / Sangailes vasara (2015) DVDRip | L1

313 | 3

1.2 ГБ

В этой теме нет новых непрочитанных сообщений. Лето Сангайле / Sangailes vasara (2015) DVDRip-AVC | L1

50 | 6

1.17 ГБ

В этой теме нет новых непрочитанных сообщений. Лето Сангайле / Sangailes vasara (2015) DVDRip-AVC | Sub

190 | 6

1.05 ГБ

В этой теме нет новых непрочитанных сообщений. Футбол. Чемпионат Европы - 1988 / Финал / Голландия - СССР (1988) TVRip

0 | 191

1.36 ГБ

В этой теме нет новых непрочитанных сообщений. Футбол. Чемпионат Европы - 1988 / Полуфинал / Италия - СССР (1988) TVRip

67 | 49

1.36 ГБ

В этой теме нет новых непрочитанных сообщений. Футбол. Чемпионат Европы. 1988. Англия - СССР (1988) TVRip

0 | 129

1.36 ГБ




Вы не можете начинать темы
Вы не можете отвечать на сообщения
Вы не можете редактировать свои сообщения
Вы не можете удалять свои сообщения
Вы не можете добавлять вложения

Перейти:  
Для Мосгорсуда, Роскомнадзора и рекламодателей: mosgorsud-torrent[собачка]yandex.ru
 Вход
ppkBB3cker v.2 © 2008-2014 @ PPK
[ Time : 0.199s | 16 Queries | GZIP : Off ]

cron