img image001 image001 image001 image001 image001 image001 image001 image001 image001 image001 image001 image001 image001 image001 image001

Planets Sun Sun Sun
Статистика раздачи
Автор: PriZraK | Размер: 744.97 МБ | Добавлен: 19 ноя 2016
Раздают: 15    Качают: 1
Скачать торрент
Скачать торрент
Описание торрента

СообщениеДобавлено: 19 ноя 2016 

Страна: СССР
Производство: Алма-Атинская студия художественных и документальных фильмов
Жанр: комедия
Год выпуска: 1956
Продолжительность: 01:14:33
Перевод: Не требуется
Cубтитры: нет
Оригинальная аудиодорожка: русский
Режиссер: Александр Медведкин
В ролях:
Сергей Гурзо (старший), Римма Шорохова, Идрис Ногайбаев, Нина Гребешкова, Владимир Борискин, Всеволод Тягушев, Иван Лобызовский, Г. Федоровский, Павел Кайров, Шахан Мусин, Кененбай Кожабеков, Л. Ольшевский, Надежда Самсонова...
Полный список актёров
Описание:
О формировании характера юноши, участника борьбы за хлеб на целине.
Цветной фильм. Группа комсомольцев основала на целинных землях Казахстана совхоз "Май-Балык". Среди юношей и девушек, будущих хлеборобов, выделяется легкомысленный, франтоватый парень Женька Омега. В первые же дни пребывания на целине Женька совершил ряд "подвигов": променял резиновые сапоги на гитару, попытался увильнуть от работы, ушел с курсов трактористов. Руководство совхоза и товарищи понимают, что Омеге нельзя доверить трактор, и несмотря на возмущение паренька, его назначают водовозом.
Идет время. Омега, ставший желанным гостем во всех бригадах, начинает проникаться уважением к своей профессии. Вскоре юноше приходится пройти через новое испытание: любимая им девушка Ольга отдает свое сердце молодому трактористу, казаху Идрису. Неудачная любовь не сломила Омегу. Наконец пришла к нему первая большая радость: став трактористом, он вспахал последнюю борозду на целине.





Источник: DVB
Качество видео: SATRip
Формат видео: AVI
Видео: 688x512 (4:3), 25 fps, XviD ~ 1259 kbps avg, 0.143 bit/pixel
Аудио: 48 kHz, MP3 2.0, 128 kbps
Раздача от:
Общее
Полное имя : Bespokoynaya.vesna.1956.SATRip_[New-team]_by_AVP_Studio.avi
Формат : AVI
Формат/Информация : Audio Video Interleave
Размер файла : 745 Мбайт
Продолжительность : 1 ч. 14 м.
Общий поток : 1397 Кбит/сек
Программа кодирования : VirtualDubMod 1.5.10.3 | www.virtualdub-fr.org || (build 2550/release)
Библиотека кодирования : VirtualDubMod build 2550/release
Видео
Идентификатор : 0
Формат : MPEG-4 Visual
Профиль формата : Advanced Simple@L5
Параметр BVOP формата : 1
Параметр QPel формата : Нет
Параметр GMC формата : Без точки перехода
Параметр матрицы формата : Выборочная
Идентификатор кодека : XVID
Идентификатор кодека/Подсказка : XviD
Продолжительность : 1 ч. 14 м.
Битрейт : 1259 Кбит/сек
Ширина : 688 пикселей
Высота : 512 пикселей
Соотношение сторон : 4:3
Частота кадров : 25,000 кадров/сек
Цветовое пространство : YUV
Субдискретизация насыщенности : 4:2:0
Битовая глубина : 8 бит
Тип развёртки : Прогрессивная
Метод сжатия : С потерями
Бит/(Пиксели*Кадры) : 0.143
Размер потока : 672 Мбайт (90%)
Библиотека кодирования : XviD 1.2.1 (UTC 2008-12-04)
Аудио
Идентификатор : 1
Формат : MPEG Audio
Версия формата : Version 1
Профиль формата : Layer 3
Идентификатор кодека : 55
Идентификатор кодека/Подсказка : MP3
Продолжительность : 1 ч. 14 м.
Вид битрейта : Постоянный
Битрейт : 128 Кбит/сек
Каналы : 2 канала
Частота : 48,0 КГц
Метод сжатия : С потерями
Размер потока : 68,3 Мбайт (9%)
Выравнивание : Соединение по промежуткам
Продолжительность промежутка : 40 мс. (1,00 видеокадр)
Время предзагрузки промежутка : 504 мс.
Библиотека кодирования : LAME3.99r
Настройки программы : -m s -V 4 -q 2 -lowpass 17 -b 128





   Похожие торренты   Торрент   Размер 
В этой теме нет новых непрочитанных сообщений. Беспокойная весна (1956) SATRip-AVC от New-Team

17 | 1

1.09 ГБ

В этой теме нет новых непрочитанных сообщений. Весна на Заречной улице (1956) HDTVRip от New-Team

16 | 7

1.09 ГБ

В этой теме нет новых непрочитанных сообщений. Весна на Заречной улице (1956) HDTVRip от New-Team

39 | 4

744.51 МБ

В этой теме нет новых непрочитанных сообщений. Весна на Заречной улице (1956) HDTVRip-AVC от New-Team

84 | 14

1.46 ГБ

В этой теме нет новых непрочитанных сообщений. Весна на Заречной улице (1956) BDRip 1080p от NOLIMITS-TEAM

3 | 4

4.38 ГБ

В этой теме нет новых непрочитанных сообщений. Весна на Заречной улице (1956) SATRip-AVC | Цветная версия

25 | 7

1.4 ГБ

В этой теме нет новых непрочитанных сообщений. Весна на Заречной улице (1956) SATRip | Цветная версия

150 | 13

1.35 ГБ




Вы не можете начинать темы
Вы не можете отвечать на сообщения
Вы не можете редактировать свои сообщения
Вы не можете удалять свои сообщения
Вы не можете добавлять вложения

Перейти:  
Для Мосгорсуда, Роскомнадзора и рекламодателей: mosgorsud-torrent[собачка]yandex.ru
 Вход
ppkBB3cker v.2 © 2008-2014 @ PPK
[ Time : 0.046s | 15 Queries | GZIP : Off ]

Торрент трекер RUTOR.IN, Не можете зайти на rutor.org? Какой новый адрес рутор? Какое зеркало рутор? Не работает rutor.org и зеркала? Тогда наш торрент специально для вас. Rutor.in неофициальное зеркало rutor. В случае если у Вас заблокирован rutor или вдруг Вы не можете на него зайти, то Вы без труда сможете скачать бесплатно и без рекламы последние новинки кино, игр, сериалов и прочего у нас, на Rutor.in. Не нужно использовать прокси, чтобы зайти на рутор, достаточно воспользоваться нашим ресурсом. Все новые фильмы, игры, сериалы, книги и музыка за 2013 и 2014 годы через торрент бесплатно. Скачивайте фильмы в хорошем качестве, игры для пк, xbox, playstation без регистрации. У нас вы найдете новые Зарубежные сериалы и Русские сериалы 2013, 2014, 2015 годов. Оставайтесь с нами, качайте любимые фильмы, игры, сериалы, книги и музыку.