img image001 image001 image001 image001 image001 image001 image001 image001 image001 image001 image001 image001 image001 image001 image001

Planets Sun Sun Sun
Статистика раздачи
Автор: Nickolas3434 | Размер: 744.2 МБ | Добавлен: 21 ноя 2016
Раздают: 47    Качают: 2
Скачать торрент
Скачать торрент
Описание торрента

СообщениеДобавлено: 21 ноя 2016 

Информация о фильме
Название: Коллектор
Год выхода: 2016
Жанр: Драма, триллер
Режиссёр: Алексей Красовский
В ролях: Константин Хабенский, Евгений Стычкин, Ксения Буравская, Полина Агуреева, Кирилл Плетнёв, Валентина Лукащук, Александр Тютин, Игорь Золотовицкий, Никита Тюнин, Татьяна Лазарева
Описание: Артур — мастер своего дела. Работая только с крупными должниками, он находит всю их подноготную и эффективно использует против них. Он никогда не прибегает к банальным методам, его конек — психологическая атака. Артур умеет виртуозно перевоплощаться, сбивать с толку, выводить из равновесия и так допекать своих клиентов, что они готовы вернуть все, только бы никогда больше не слышать его голос. Но однажды Артур сам становится мишенью: в сети появляется скандальное видео с его участием, и от него мгновенно отворачиваются друзья и коллеги. Под угрозой оказывается не только его репутация, но и жизнь… Теперь у коллектора есть всего одна ночь, чтобы найти того, кто загнал его в угол.
Страна: Россия
Производство: «Паприка Продакшн»
Продолжительность: 01:11:30
Перевод: Не требуется [iTunes]
Файл
Качество: WEB-DLRip(AVC)
Формат: MKV
Видео кодек: AVC
Аудио кодек: AC3
Видео: 720x300 (2.40:1), 25.000 fps, x264 ~1271 kbps avg, 0.235 bit/pixel
Аудио: AC3, 48 kHz, 2 ch, ~192 kbps | RUS
Дата премьеры (мир): 02 июля 2016
Дата премьеры (РФ): 06 октября 2016, «WDSSPR»
Общее
Уникальный идентификатор : 194729308917164067643596132492615358665 (0x927F802E7CBF87188068ED33D57418C9)
Полное имя : D:TempКоллектор.2016. WEB-DLRip-AVC by ExKinoRay.mkv
Формат : Matroska
Версия формата : Version 4 / Version 2
Размер файла : 745 Мбайт
Продолжительность : 1 ч. 11 м.
Общий поток : 1465 Кбит/сек
Название фильма : Коллектор.2016. WEB-DLRip-AVC by Vovan366
Дата кодирования : UTC 2016-11-12 19:10:25
Программа кодирования : mkvmerge v9.5.0 ('Quiet Fire') 64bit
Библиотека кодирования : libebml v1.3.4 + libmatroska v1.4.5
DURATION : 01:11:04.736000000
NUMBER_OF_FRAMES : 133273
NUMBER_OF_BYTES : 102353664
_STATISTICS_WRITING_APP : mkvmerge v9.5.0 ('Quiet Fire') 64bit
_STATISTICS_WRITING_DATE_UTC : 2016-11-12 19:10:25
_STATISTICS_TAGS : BPS DURATION NUMBER_OF_FRAMES NUMBER_OF_BYTES
Видео
Идентификатор : 1
Формат : AVC
Формат/Информация : Advanced Video Codec
Профиль формата : High@L4.1
Параметр CABAC формата : Да
Параметр ReFrames формата : 10 кадров
Идентификатор кодека : V_MPEG4/ISO/AVC
Продолжительность : 1 ч. 11 м.
Битрейт : 1271 Кбит/сек
Ширина : 720 пикселей
Высота : 300 пикселей
Соотношение сторон : 2,40:1
Режим частоты кадров : Постоянный
Частота кадров : 25,000 кадров/сек
Цветовое пространство : YUV
Субдискретизация насыщенности : 4:2:0
Битовая глубина : 8 бит
Тип развёртки : Прогрессивная
Бит/(Пиксели*Кадры) : 0.235
Размер потока : 632 Мбайт (85%)
Библиотека кодирования : x264 core 146 r2538 121396c
Настройки программы : cabac=1 / ref=10 / deblock=1:-1:-1 / analyse=0x3:0x113 / me=umh / subme=10 / psy=1 / psy_rd=1.00:0.05 / mixed_ref=1 / me_range=48 / chroma_me=1 / trellis=2 / 8x8dct=1 / cqm=0 / deadzone=21,11 / fast_pskip=0 / chroma_qp_offset=-3 / threads=6 / lookahead_threads=1 / sliced_threads=0 / nr=0 / decimate=0 / interlaced=0 / bluray_compat=0 / constrained_intra=0 / bframes=10 / b_pyramid=2 / b_adapt=2 / b_bias=0 / direct=3 / weightb=1 / open_gop=0 / weightp=2 / keyint=250 / keyint_min=25 / scenecut=40 / intra_refresh=0 / rc_lookahead=40 / rc=2pass / mbtree=0 / bitrate=1271 / ratetol=1.0 / qcomp=0.60 / qpmin=0 / qpmax=69 / qpstep=4 / cplxblur=20.0 / qblur=0.5 / vbv_maxrate=14000 / vbv_bufsize=14000 / nal_hrd=none / filler=0 / ip_ratio=1.40 / pb_ratio=1.30 / aq=1:1.00
Язык : English
Default : Да
Forced : Нет
Аудио
Идентификатор : 2
Формат : AC-3
Формат/Информация : Audio Coding 3
Расширение режима : CM (complete main)
Параметр Endianness формата : Big
Идентификатор кодека : A_AC3
Продолжительность : 1 ч. 11 м.
Вид битрейта : Постоянный
Битрейт : 192 Кбит/сек
Каналы : 2 канала
Расположение каналов : Front: L R
Частота : 48,0 КГц
Битовая глубина : 16 бит
Метод сжатия : С потерями
Размер потока : 97,6 Мбайт (13%)
Язык : Russian
Default : Да
Forced : Нет
Меню
00:00:00.000 : en:Глава 1
00:07:01.120 : en:Глава 2
00:12:06.120 : en:Глава 3
00:17:52.960 : en:Глава 4
00:24:07.360 : en:Глава 5
00:29:37.320 : en:Глава 6
00:35:13.360 : en:Глава 7
00:40:50.320 : en:Глава 8
00:46:02.960 : en:Глава 9
00:51:26.280 : en:Глава 10
00:57:49.440 : en:Глава 11
01:04:29.360 : en:Глава 12


Релиз от:
Rip by: Vovan366



   Похожие торренты   Торрент   Размер 
В этой теме нет новых непрочитанных сообщений. Коллектор (2016) WEB-DLRip-AVC от ExKinoRay | iTunes

34 | 20

744.55 МБ

В этой теме нет новых непрочитанных сообщений. Коллектор (2016) WEB-DLRip-AVC от ExKinoRay | iTunes

135 | 50

1.08 ГБ

В этой теме нет новых непрочитанных сообщений. Коллектор (2016) WEB-DLRip-AVC от k.e.n | iTunes

140 | 0

1.46 ГБ

В этой теме нет новых непрочитанных сообщений. Коллектор (2016) WEB-DLRip | iTunes

2132 | 19

1.33 ГБ

В этой теме нет новых непрочитанных сообщений. Коллектор (2016) WEB-DLRip от GeneralFilm| iTunes

58 | 2

744.11 МБ

В этой теме нет новых непрочитанных сообщений. Коллектор (2016) WEB-DLRip от Kaztorrents | КПК | iTunes

25 | 0

650.8 МБ

В этой теме нет новых непрочитанных сообщений. Коллектор (2016) WEB-DLRip от GeneralFilm| iTunes

52 | 1

743.82 МБ




Вы не можете начинать темы
Вы не можете отвечать на сообщения
Вы не можете редактировать свои сообщения
Вы не можете удалять свои сообщения
Вы не можете добавлять вложения

Перейти:  
Для Мосгорсуда, Роскомнадзора и рекламодателей: mosgorsud-torrent[собачка]yandex.ru
 Вход
ppkBB3cker v.2 © 2008-2014 @ PPK
[ Time : 0.035s | 15 Queries | GZIP : Off ]

Торрент трекер RUTOR.IN, Не можете зайти на rutor.org? Какой новый адрес рутор? Какое зеркало рутор? Не работает rutor.org и зеркала? Тогда наш торрент специально для вас. Rutor.in неофициальное зеркало rutor. В случае если у Вас заблокирован rutor или вдруг Вы не можете на него зайти, то Вы без труда сможете скачать бесплатно и без рекламы последние новинки кино, игр, сериалов и прочего у нас, на Rutor.in. Не нужно использовать прокси, чтобы зайти на рутор, достаточно воспользоваться нашим ресурсом. Все новые фильмы, игры, сериалы, книги и музыка за 2013 и 2014 годы через торрент бесплатно. Скачивайте фильмы в хорошем качестве, игры для пк, xbox, playstation без регистрации. У нас вы найдете новые Зарубежные сериалы и Русские сериалы 2013, 2014, 2015 годов. Оставайтесь с нами, качайте любимые фильмы, игры, сериалы, книги и музыку.