img image001 image001 image001 image001 image001 image001 image001 image001 image001 image001 image001 image001 image001 image001 image001

Planets Sun Sun Sun
Статистика раздачи
Автор: Nickolas3434 | Размер: 1.05 ГБ | Добавлен: 21 ноя 2016
Раздают: 256    Качают: 12
Скачать торрент
Скачать торрент
Описание торрента

СообщениеДобавлено: 21 ноя 2016 

Дуэлянт

Информация о сериале:
♦ Страна: Россия
♦ Производство: Нон-стоп Продакшн
♦ Год выпуска: 2016
♦ Жанр: Драма
♦ Режиссер: Алексей Мизгирёв
♦ В ролях: Пётр Фёдоров, Владимир Машков, Юлия Хлынина, Франциска Петри, Мартин Вуттке, Сергей Гармаш, Павел Табаков, Юрий Колокольников, Александр Яценко, Юрий Кузнецов
♦ Перевод: Не требуется
♦ Продолжительность: 01:44:43
♦ Релиз от:
♦ Автор рипа: ProT1gR
Описание сериала:
◈ В центре сюжета профессиональный дуэлянт, который зарабатывает на жизнь, участвуя в поединках за других людей.


Sort Name: ДУЭЛЯНТ
XID: Apple:vendor_id:2016-840234
contentID: 1169309394
Screenwriters: Алексей Мизгирёв
Producers: Александр Роднянский, Сергей Мелькумов, Глеб Фетисов
Director: Алексей Мизгирёв
Cast: Пётр Фёдоров, Владимир Машков, Юлия Хлынина, Франциска Петри, Мартин Вуттке, Сергей Гармаш, Павел Табаков, Юрий Колокольников, Александр Яценко, Юрий Кузнецов
Studio: Non-Stop Production
Rating: 135
Long Deion: В центре сюжета профессиональный дуэлянт, который зарабатывает на жизнь, участвуя в поединках за других людей.
Deion: В центре сюжета профессиональный дуэлянт, который зарабатывает на жизнь, участвуя в поединках за других людей.
Release Date: 2016-09-09T08:00:00Z
Genre: Боевики и приключения
Artist: Alexei Mizgirev
Name: ДУЭЛЯНТ
General
Complete name : /Users/imac/HandBrake/Duelyant.(480p).(pk).m4v
Format : MPEG-4
Codec ID : M4V (M4V /M4A /mp42/isom)
File size : 1.05 GiB
Duration : 1h 44mn
Overall bit rate mode : Variable
Overall bit rate : 1 431 Kbps
Movie name : ДУЭЛЯНТ
Performer : Alexei Mizgirev
Director : Алексей Мизгирёв
Actor : Пётр Фёдоров / Владимир Машков / Юлия Хлынина / Франциска Петри / Мартин Вуттке / Сергей Гармаш / Павел Табаков / Юрий Колокольников / Александр Яценко / Юрий Кузнецов
Screenplay by : Алексей Мизгирёв
Producer : Александр Роднянский / Сергей Мелькумов / Глеб Фетисов
Production studio : Non-Stop Production
Genre : Боевики и приключения
ContentType : Short Film
Deion : В центре сюжета профессиональный дуэлянт, который зарабатывает на жизнь, участвуя в поединках за других людей.
Recorded date : UTC 2016-09-09 08:00:00
Encoded date : UTC 2016-11-03 09:59:32
Tagged date : UTC 2016-11-03 10:00:49
Cover : Yes
Rating : None
Title/Sort : ДУЭЛЯНТ
LongDeion : В центре сюжета профессиональный дуэлянт, который зарабатывает на жизнь, участвуя в поединках за других людей.
AppleStoreCatalogID : 1169309394
Vendor : Apple:vendor_id:2016-840234
ContentRating : ru-movie|16+|375|
Video #1
ID : 1
Format : AVC
Format/Info : Advanced Video Codec
Format profile : Baseline@L3
Format settings, CABAC : No
Format settings, ReFrames : 2 frames
Codec ID : avc1
Codec ID/Info : Advanced Video Coding
Duration : 1h 44mn
Bit rate : 1 300 Kbps
Width : 640 pixels
Height : 360 pixels
Display aspect ratio : 2.35:1
Original display aspect ratio : 2.35:1
Frame rate mode : Variable
Frame rate : 23.976 (24000/1001) fps
Minimum frame rate : 23.974 fps
Maximum frame rate : 23.981 fps
Color space : YUV
Chroma subsampling : 4:2:0
Bit depth : 8 bits
Scan type : Progressive
Bits/(Pixel*Frame) : 0.235
Stream size : 973 MiB (91%)
Title : Main Program
Writing library : x264 core 142 r2479 dd79a61
Encoding settings : cabac=0 / ref=2 / deblock=1:0:0 / analyse=0x1:0x111 / me=umh / subme=6 / psy=1 / psy_rd=1.00:0.00 / mixed_ref=1 / me_range=16 / chroma_me=1 / trellis=0 / 8x8dct=0 / cqm=0 / deadzone=21,11 / fast_pskip=1 / chroma_qp_offset=-2 / threads=36 / lookahead_threads=2 / sliced_threads=0 / nr=0 / decimate=1 / interlaced=0 / bluray_compat=0 / constrained_intra=0 / bframes=0 / weightp=0 / keyint=240 / keyint_min=24 / scenecut=40 / intra_refresh=0 / rc_lookahead=40 / rc=2pass / mbtree=1 / bitrate=1300 / ratetol=1.0 / qcomp=0.60 / qpmin=0 / qpmax=69 / qpstep=4 / cplxblur=20.0 / qblur=0.5 / vbv_maxrate=5000 / vbv_bufsize=5000 / nal_hrd=none / filler=0 / ip_ratio=1.40 / aq=1:1.00
Language : Russian
Encoded date : UTC 2016-11-03 09:59:33
Tagged date : UTC 2016-11-03 09:59:36
Color range : Limited
Color primaries : BT.709
Transfer characteristics : BT.709
Matrix coefficients : BT.709
Menus : 3,4
Video #2
ID : 4
Format : JPEG
Codec ID : jpeg
Duration : 1h 44mn
Bit rate mode : Variable
Bit rate : 1 010 bps
Width : 640 pixels
Height : 270 pixels
Display aspect ratio : 2.40:1
Frame rate mode : Variable
Frame rate : 0.003 fps
Minimum frame rate : 0.002 fps
Maximum frame rate : 0.004 fps
Color space : YUV
Chroma subsampling : 4:2:0
Bit depth : 8 bits
Compression mode : Lossy
Bits/(Pixel*Frame) : 1.948
Stream size : 657 KiB (0%)
Title : Chapter Images
Language : Russian
Default : No
Encoded date : UTC 2016-11-03 09:59:48
Tagged date : UTC 2016-11-03 09:59:48
Menu For : 1
Audio
ID : 2
Format : AAC
Format/Info : Advanced Audio Codec
Format profile : LC
Codec ID : 40
Duration : 1h 44mn
Bit rate mode : Variable
Bit rate : 126 Kbps
Maximum bit rate : 190 Kbps
Channel(s) : 2 channels
Channel positions : Front: L R
Sampling rate : 48.0 KHz
Frame rate : 46.875 fps (1024 spf)
Compression mode : Lossy
Stream size : 94.6 MiB (9%)
Title : Russian Stereo
Language : Russian
Default : Yes
Alternate group : 1
Encoded date : UTC 2016-11-03 09:59:33
Tagged date : UTC 2016-11-03 09:59:46
Menu #1
00:00:00.000 : 1
00:06:46.560 : 2
00:14:28.240 : 3
00:21:11.040 : 4
00:26:11.000 : 5
00:30:12.000 : 6
00:36:18.960 : 7
00:43:45.240 : 8
00:49:11.720 : 9
00:56:21.320 : 10
01:02:33.280 : 11
01:08:04.240 : 12
01:13:35.240 : 13
01:20:05.440 : 14
01:27:22.320 : 15
01:34:01.040 : 16
Menu #2
ID : 3
Codec ID : text
Duration : 1h 44mn
Language : Russian
Encoded date : UTC 2016-11-03 09:59:46
Tagged date : UTC 2016-11-03 09:59:46
Menu For : 1
00:00:00.000 : 1
00:06:46.560 : 2
00:14:28.240 : 3
00:21:11.040 : 4
00:26:11.000 : 5
00:30:12.000 : 6
00:36:18.960 : 7
00:43:45.240 : 8
00:49:11.720 : 9
00:56:21.320 : 10
01:02:33.280 : 11
01:08:04.240 : 12
01:13:35.240 : 13
01:20:05.440 : 14
01:27:22.320 : 15
01:34:01.040 : 16
Bit rate mode : VBR
x264 [info]: frame I:1396 Avg QP:14.80 size: 34335
x264 [info]: frame P:149258 Avg QP:17.37 size: 6514
x264 [info]: mb I I16..4: 15.6% 0.0% 84.4%
x264 [info]: mb P I16..4: 0.4% 0.0% 2.1% P16..4: 43.3% 21.8% 8.9% 0.0% 0.0% skip:23.4%
x264 [info]: coded y,uvDC,uvAC intra: 84.5% 73.6% 50.2% inter: 26.7% 15.4% 3.0%
x264 [info]: i16 v,h,dc,p: 42% 12% 12% 34%
x264 [info]: i4 v,h,dc,ddl,ddr,vr,hd,vl,hu: 40% 11% 12% 5% 6% 9% 5% 7% 5%
x264 [info]: i8c dc,h,v,p: 55% 14% 24% 6%
x264 [info]: ref P L0: 72.3% 27.7%
x264 [info]: kb/s: 1298.86

Технические данные файла:
♦ Качество: WEB-DLRip (Исходник: WEB-DL 1080p)
♦ Тип: SD (480p)
♦ Формат: M4V
♦ Видео кодек: H.264
♦ Аудио кодек: AAC
♦ Видео: 640x360 анаморф 852х360, 2.35:1, 23.976 (24000/1001) fps, ~1 300 Kbps (0.235 bit/pixel)
♦ Аудио: 48.0 KHz, 2 ch, 128 kbps

/screens]



   Похожие торренты   Торрент   Размер 
В этой теме нет новых непрочитанных сообщений. Дуэлянт (2016) WEB-DLRip | iTunes

7936 | 169

1.45 ГБ

В этой теме нет новых непрочитанных сообщений. Дуэлянт (2016) WEB-DLRip-AVC от k.e.n | iTunes

2220 | 151

2.18 ГБ

В этой теме нет новых непрочитанных сообщений. Дуэлянт (2016) WEB-DLRip от MegaPeer | iTunes

173 | 1

747.55 МБ

В этой теме нет новых непрочитанных сообщений. Дуэлянт (2016) WEB-DLRip-AVC от Dalemake | iTunes

756 | 63

1.46 ГБ

В этой теме нет новых непрочитанных сообщений. Дуэлянт (2016) WEB-DLRip-AVC от R.G.Resident | iTunes

739 | 36

1.17 ГБ

В этой теме нет новых непрочитанных сообщений. Дуэлянт (2016) WEB-DLRip от Generalfilm | КПК | iTunes

204 | 26

435.88 МБ

В этой теме нет новых непрочитанных сообщений. Дуэлянт (2016) WEB-DLRip от Scarabey | iTunes

4807 | 131

1.45 ГБ




Вы не можете начинать темы
Вы не можете отвечать на сообщения
Вы не можете редактировать свои сообщения
Вы не можете удалять свои сообщения
Вы не можете добавлять вложения

Перейти:  
Для Мосгорсуда, Роскомнадзора и рекламодателей: mosgorsud-torrent[собачка]yandex.ru
 Вход
ppkBB3cker v.2 © 2008-2014 @ PPK
[ Time : 0.035s | 17 Queries | GZIP : Off ]

Торрент трекер RUTOR.IN, Не можете зайти на rutor.org? Какой новый адрес рутор? Какое зеркало рутор? Не работает rutor.org и зеркала? Тогда наш торрент специально для вас. Rutor.in неофициальное зеркало rutor. В случае если у Вас заблокирован rutor или вдруг Вы не можете на него зайти, то Вы без труда сможете скачать бесплатно и без рекламы последние новинки кино, игр, сериалов и прочего у нас, на Rutor.in. Не нужно использовать прокси, чтобы зайти на рутор, достаточно воспользоваться нашим ресурсом. Все новые фильмы, игры, сериалы, книги и музыка за 2013 и 2014 годы через торрент бесплатно. Скачивайте фильмы в хорошем качестве, игры для пк, xbox, playstation без регистрации. У нас вы найдете новые Зарубежные сериалы и Русские сериалы 2013, 2014, 2015 годов. Оставайтесь с нами, качайте любимые фильмы, игры, сериалы, книги и музыку.