img image001 image001 image001 image001 image001 image001 image001 image001 image001 image001 image001 image001 image001 image001 image001

Planets Sun Sun Sun
Статистика раздачи
Автор: Nickolas3434 | Размер: 4.37 ГБ | Добавлен: 21 ноя 2016
Раздают: 1041    Качают: 49
Скачать торрент
Скачать торрент
Описание торрента

СообщениеДобавлено: 21 ноя 2016 


Информация о фильме
Название: Коллектор
Год выхода: 2016
Жанр: драма, триллер
Режиссер: Алексей Красовский
В ролях: Константин Хабенский, Евгений Стычкин, Ксения Буравская, Полина Агуреева, Кирилл Плетнёв, Валентина Лукащук, Александр Тютин, Игорь Золотовицкий, Никита Тюнин, Татьяна Лазарева
О фильме:
Артур - мастер своего дела. Работая только с крупными должниками, он находит всю их подноготную и эффективно использует против них. Он никогда не прибегает к банальным методам, его конек - психологическая атака. Артур умеет виртуозно перевоплощаться, сбивать с толку, выводить из равновесия и так допекать своих клиентов, что они готовы вернуть все, только бы никогда больше не слышать его голос. Но однажды Артур сам становится мишенью: в сети появляется скандальное видео с его участием, и от него мгновенно отворачиваются друзья и коллеги. Под угрозой оказывается не только его репутация, но и жизнь... Теперь у коллектора есть всего одна ночь, чтобы найти того, кто загнал его в угол.

Страна: Россия
Студия: Paprika Productions
Продолжительность: 01:14:18
Перевод: Оригинальный (Blu-Ray RUS)
Файл
Кодек: MPEG4 Video (H264)
Качество: BDRip 1080p | Лицензия
Видео: 1920x804, 7790 Kbps, 23.976fp
Звук: Аудио #: AC-3, 6 ch, 640 kbps (Rus)
Субтитры: Русские, Английские
Семпл
x264 [info]: frame I:495 Avg QP:16.33 size:158419
x264 [info]: frame P:19710 Avg QP:18.55 size: 71688
x264 [info]: frame B:86687 Avg QP:20.68 size: 32811
x264 [info]: consecutive B-frames: 0.7% 1.4% 2.8% 8.2% 7.7% 72.3% 3.5% 1.8% 1.6%
Общее
Уникальный идентификатор : 192070667608225865945779799237233698181 (0x907F770B74093E2493F9BD9AB7336585)
Полное имя : Коллектор.2016.BDRip.1080p.mkv
Формат : Matroska
Версия формата : Version 2
Размер файла : 4,37 Гбайт
Продолжительность : 1 ч. 14 м.
Общий поток : 8422 Кбит/сек
Название фильма : Коллектор.2016.BDRip.1080p
Дата кодирования : UTC 2016-11-20 11:17:42
Программа кодирования : mkvmerge v4.0.0 ('The Stars were mine') сборка от Jun 6 2010 16:18:42
Библиотека кодирования : libebml v1.0.0 + libmatroska v1.0.0
Видео
Идентификатор : 1
Формат : AVC
Формат/Информация : Advanced Video Codec
Профиль формата : High@L4.1
Параметр CABAC формата : Да
Параметр ReFrames формата : 5 кадров
Идентификатор кодека : V_MPEG4/ISO/AVC
Продолжительность : 1 ч. 14 м.
Битрейт : 7790 Кбит/сек
Ширина : 1920 пикселей
Высота : 804 пикселя
Соотношение сторон : 2,40:1
Режим частоты кадров : Постоянный
Частота кадров : 23,976 (23976/1000) кадра/сек
Цветовое пространство : YUV
Субдискретизация насыщенности : 4:2:0
Битовая глубина : 8 бит
Тип развёртки : Прогрессивная
Бит/(Пиксели*Кадры) : 0.210
Размер потока : 3,95 Гбайт (90%)
Заголовок : rip by -=walledol=-
Библиотека кодирования : x264 core 148 r2721 72d53ab
Настройки программы : cabac=1 / ref=5 / deblock=1:-3:-3 / analyse=0x3:0x133 / me=umh / subme=11 / psy=1 / psy_rd=1.00:0.15 / mixed_ref=1 / me_range=32 / chroma_me=1 / trellis=2 / 8x8dct=1 / cqm=0 / deadzone=21,11 / fast_pskip=0 / chroma_qp_offset=-3 / threads=6 / lookahead_threads=1 / sliced_threads=0 / nr=0 / decimate=1 / interlaced=0 / bluray_compat=0 / constrained_intra=0 / bframes=8 / b_pyramid=2 / b_adapt=2 / b_bias=0 / direct=3 / weightb=1 / open_gop=0 / weightp=2 / keyint=240 / keyint_min=23 / scenecut=40 / intra_refresh=0 / rc=2pass / mbtree=0 / bitrate=7790 / ratetol=1.0 / qcomp=0.60 / qpmin=0 / qpmax=69 / qpstep=4 / cplxblur=20.0 / qblur=0.5 / ip_ratio=1.40 / pb_ratio=1.30 / aq=3:0.75
Язык : Russian
Default : Нет
Forced : Нет
Аудио
Идентификатор : 2
Формат : AC-3
Формат/Информация : Audio Coding 3
Расширение режима : CM (complete main)
Параметр Endianness формата : Big
Идентификатор кодека : A_AC3
Продолжительность : 1 ч. 14 м.
Вид битрейта : Постоянный
Битрейт : 640 Кбит/сек
Каналы : 6 каналов
Расположение каналов : Front: L C R, Side: L R, LFE
Частота : 48,0 КГц
Частота кадров : 31,250 кадров/сек (1536 spf)
Битовая глубина : 16 бит
Метод сжатия : С потерями
Размер потока : 340 Мбайт (8%)
Язык : Russian
Default : Да
Forced : Нет
Текст #1
Идентификатор : 3
Формат : UTF-8
Идентификатор кодека : S_TEXT/UTF8
Идентификатор кодека/Информация : UTF-8 Plain Text
Язык : Russian
Default : Нет
Forced : Нет
Текст #2
Идентификатор : 4
Формат : UTF-8
Идентификатор кодека : S_TEXT/UTF8
Идентификатор кодека/Информация : UTF-8 Plain Text
Язык : English
Default : Нет
Forced : Нет
Меню
00:00:00.000 : ru:Глава 1
00:00:38.955 : ru:Глава 2
00:07:29.866 : ru:Глава 3
00:14:41.547 : ru:Глава 4
00:23:41.920 : ru:Глава 5
00:33:21.124 : ru:Глава 6
00:41:10.885 : ru:Глава 7
00:50:14.803 : ru:Глава 8
01:00:29.876 : ru:Глава 9




   Похожие торренты   Торрент   Размер 
В этой теме нет новых непрочитанных сообщений. Коллектор (2016) BDRip 1080p | Лицензия

932 | 135

7.73 ГБ

В этой теме нет новых непрочитанных сообщений. Коллектор (2016) BDRip 1080p от New-Team & qqss44 | Лицензия

577 | 73

5.75 ГБ

В этой теме нет новых непрочитанных сообщений. Коллектор (2016) BDRip-AVC от HELLYWOOD | Лицензия

1286 | 110

1.46 ГБ

В этой теме нет новых непрочитанных сообщений. Коллектор (2016) BDRip от Kaztorrents | КПК | Лицензия

84 | 7

388.68 МБ

В этой теме нет новых непрочитанных сообщений. Коллектор (2016) BDRip от MegaPeer | Лицензия

5475 | 515

1.32 ГБ

В этой теме нет новых непрочитанных сообщений. Коллектор (2016) BDRip 720p | Лицензия

237 | 26

4.69 ГБ

В этой теме нет новых непрочитанных сообщений. Коллектор (2016) BDRip-AVC от ExKinoRay | Лицензия

152 | 7

1.27 ГБ




Вы не можете начинать темы
Вы не можете отвечать на сообщения
Вы не можете редактировать свои сообщения
Вы не можете удалять свои сообщения
Вы не можете добавлять вложения

Перейти:  
Для Мосгорсуда, Роскомнадзора и рекламодателей: mosgorsud-torrent[собачка]yandex.ru
 Вход
ppkBB3cker v.2 © 2008-2014 @ PPK
[ Time : 0.022s | 14 Queries | GZIP : Off ]

Торрент трекер RUTOR.IN, Не можете зайти на rutor.org? Какой новый адрес рутор? Какое зеркало рутор? Не работает rutor.org и зеркала? Тогда наш торрент специально для вас. Rutor.in неофициальное зеркало rutor. В случае если у Вас заблокирован rutor или вдруг Вы не можете на него зайти, то Вы без труда сможете скачать бесплатно и без рекламы последние новинки кино, игр, сериалов и прочего у нас, на Rutor.in. Не нужно использовать прокси, чтобы зайти на рутор, достаточно воспользоваться нашим ресурсом. Все новые фильмы, игры, сериалы, книги и музыка за 2013 и 2014 годы через торрент бесплатно. Скачивайте фильмы в хорошем качестве, игры для пк, xbox, playstation без регистрации. У нас вы найдете новые Зарубежные сериалы и Русские сериалы 2013, 2014, 2015 годов. Оставайтесь с нами, качайте любимые фильмы, игры, сериалы, книги и музыку.