img image001 image001 image001 image001 image001 image001 image001 image001 image001 image001 image001 image001 image001 image001 image001

Planets Sun Sun Sun
Статистика раздачи
Автор: Nickolas3434 | Размер: 7.73 ГБ | Добавлен: 21 ноя 2016
Раздают: 932    Качают: 135
Скачать торрент
Скачать торрент
Описание торрента

СообщениеДобавлено: 21 ноя 2016 


Информация о фильме
Оригинальное название: Коллектор
Год выпуска: 2016
Жанр: Триллер, драма
Выпущено: Россия, «Паприка Продакшн»
Режиссер: Алексей Красовский
В ролях: Константин Хабенский, Евгений Стычкин, Ксения Буравская, Полина Агуреева, Кирилл Плетнёв, Валентина Лукащук, Александр Тютин, Игорь Золотовицкий, Никита Тюнин, Татьяна Лазарева
О фильме: Артур — мастер своего дела. Работая только с крупными должниками, он находит всю их подноготную и эффективно использует против них. Он никогда не прибегает к банальным методам, его конек — психологическая атака. Артур умеет виртуозно перевоплощаться, сбивать с толку, выводить из равновесия, и так допекать своих клиентов, что они готовы вернуть все, только бы никогда больше не слышать его голос. Но однажды Артур сам становится мишенью: в сети появляется скандальное видео с его участием, и от него мгновенно отворачиваются друзья и коллеги. Под угрозой оказывается не только его репутация, но и жизнь... Теперь у коллектора есть всего одна ночь чтобы найти того, кто загнал его в угол.

Файл
Качество: BDRip (1080p)
Видео: MPEG-4 AVC, 12749 Кбит/с, 1920x804, 23.976 кадр/с
Аудио: Русский (АС3, 6 ch, 640 Кбит/с), (DTS, 6 ch, 1509 Кбит/с)
Размер: 7.73 ГБ
Продолжительность: 01:14:18
Язык: Русский
Субтитры: Русские, английские
Сохранены оригинальные чаптеры как на Blu-Ray.
Озвучивание - (Лицензия)
x264 [info]: frame I:490 Avg QP:13.99 size:193593
x264 [info]: frame P:19559 Avg QP:16.13 size:106632
x264 [info]: frame B:86843 Avg QP:17.66 size: 56685
x264 [info]: consecutive B-frames: 0.7% 1.3% 2.8% 7.4% 7.1% 73.8% 3.4% 1.3% 0.5% 0.6% 1.0%
x264 [info]: mb I I16..4: 34.0% 42.0% 24.0%
x264 [info]: mb P I16..4: 22.1% 22.1% 12.0% P16..4: 17.7% 16.1% 4.7% 0.2% 0.0% skip: 5.0%
x264 [info]: mb B I16..4: 12.5% 7.7% 2.6% B16..8: 20.7% 21.0% 4.4% direct: 9.8% skip:21.4% L0:43.5% L1:33.3% BI:23.2%
x264 [info]: 8x8 transform intra:35.9% inter:36.6%
x264 [info]: direct mvs spatial:97.7% temporal:2.3%
x264 [info]: coded y,uvDC,uvAC intra: 82.8% 93.9% 79.4% inter: 38.3% 52.5% 26.7%
x264 [info]: i16 v,h,dc,p: 9% 8% 58% 25%
x264 [info]: i8 v,h,dc,ddl,ddr,vr,hd,vl,hu: 12% 9% 45% 6% 6% 5% 5% 6% 7%
x264 [info]: i4 v,h,dc,ddl,ddr,vr,hd,vl,hu: 23% 10% 45% 4% 4% 4% 4% 3% 3%
x264 [info]: i8c dc,h,v,p: 57% 17% 15% 11%
x264 [info]: Weighted P-Frames: Y:1.6% UV:0.4%
x264 [info]: ref P L0: 39.1% 6.5% 27.0% 13.8% 13.4% 0.3% 0.0%
x264 [info]: ref B L0: 72.0% 19.0% 7.1% 1.9%
x264 [info]: ref B L1: 91.2% 8.8%
x264 [info]: kb/s:12745.95

Общее
Уникальный идентификатор : 192510651984296670584138346239936805965 (0x90D433F3063940AB962EA0594251BC4D)
Полное имя : D:ЗагрузкиKollektor.2016.x264.BDRip.(1080p).mkv
Формат : Matroska
Версия формата : Version 2
Размер файла : 7,73 Гбайт
Продолжительность : 1 ч. 14 м.
Общий поток : 14,9 Мбит/сек
Название фильма : Коллектор.2016.Rip by: ollan
Дата кодирования : UTC 2016-11-20 14:48:27
Программа кодирования : mkvmerge v5.6.0 ('Kenya Kane') built on May 27 2012 16:44:04
Библиотека кодирования : libebml v1.2.3 + libmatroska v1.3.0
Attachements : Cover - Kollektor.png
Видео
Идентификатор : 1
Формат : AVC
Формат/Информация : Advanced Video Codec
Профиль формата : High@L4.1
Параметр CABAC формата : Да
Параметр ReFrames формата : 5 кадров
Идентификатор кодека : V_MPEG4/ISO/AVC
Продолжительность : 1 ч. 14 м.
Битрейт : 12,7 Мбит/сек
Ширина : 1920 пикселей
Высота : 804 пикселя
Соотношение сторон : 2,40:1
Режим частоты кадров : Постоянный
Частота кадров : 23,976 (24000/1001) кадра/сек
Цветовое пространство : YUV
Субдискретизация насыщенности : 4:2:0
Битовая глубина : 8 бит
Тип развёртки : Прогрессивная
Бит/(Пиксели*Кадры) : 0.344
Размер потока : 6,46 Гбайт (84%)
Библиотека кодирования : x264 core 146 r2538 121396c
Настройки программы : cabac=1 / ref=5 / deblock=1:-3:-3 / analyse=0x3:0x133 / me=umh / subme=11 / psy=1 / psy_rd=0.01:0.07 / mixed_ref=1 / me_range=48 / chroma_me=1 / trellis=2 / 8x8dct=1 / cqm=0 / deadzone=21,11 / fast_pskip=0 / chroma_qp_offset=-2 / threads=12 / lookahead_threads=3 / sliced_threads=0 / nr=0 / decimate=0 / interlaced=0 / bluray_compat=0 / constrained_intra=0 / bframes=10 / b_pyramid=2 / b_adapt=2 / b_bias=0 / direct=3 / weightb=1 / open_gop=0 / weightp=2 / keyint=240 / keyint_min=23 / scenecut=40 / intra_refresh=0 / rc_lookahead=40 / rc=2pass / mbtree=0 / bitrate=12749 / ratetol=1.0 / qcomp=0.60 / qpmin=0 / qpmax=69 / qpstep=4 / cplxblur=20.0 / qblur=0.5 / vbv_maxrate=50000 / vbv_bufsize=62500 / nal_hrd=none / filler=0 / ip_ratio=1.40 / pb_ratio=1.30 / aq=1:1.00
Язык : Russian
Default : Да
Forced : Нет
Аудио #1
Идентификатор : 2
Формат : AC-3
Формат/Информация : Audio Coding 3
Расширение режима : CM (complete main)
Параметр Endianness формата : Big
Идентификатор кодека : A_AC3
Продолжительность : 1 ч. 14 м.
Вид битрейта : Постоянный
Битрейт : 640 Кбит/сек
Каналы : 6 каналов
Расположение каналов : Front: L C R, Side: L R, LFE
Частота : 48,0 КГц
Частота кадров : 31,250 кадров/сек (1536 spf)
Метод сжатия : С потерями
Размер потока : 340 Мбайт (4%)
Язык : Russian
Default : Да
Forced : Нет
Аудио #2
Идентификатор : 3
Формат : DTS
Формат/Информация : Digital Theater Systems
Режим : 16
Параметр Endianness формата : Big
Идентификатор кодека : A_DTS
Продолжительность : 1 ч. 14 м.
Вид битрейта : Постоянный
Битрейт : 1509 Кбит/сек
Каналы : 6 каналов
Расположение каналов : Front: L C R, Side: L R, LFE
Частота : 48,0 КГц
Частота кадров : 93,750 кадра/сек (512 spf)
Битовая глубина : 24 бит
Метод сжатия : С потерями
Размер потока : 802 Мбайт (10%)
Язык : Russian
Default : Нет
Forced : Нет
Текст #1
Идентификатор : 4
Формат : UTF-8
Идентификатор кодека : S_TEXT/UTF8
Идентификатор кодека/Информация : UTF-8 Plain Text
Заголовок : Full
Язык : Russian
Default : Нет
Forced : Нет
Текст #2
Идентификатор : 5
Формат : UTF-8
Идентификатор кодека : S_TEXT/UTF8
Идентификатор кодека/Информация : UTF-8 Plain Text
Заголовок : Full
Язык : English
Default : Нет
Forced : Нет
Меню
00:00:00.000 : ru:Chapter 01
00:00:38.955 : ru:Chapter 02
00:07:29.866 : ru:Chapter 03
00:14:41.547 : ru:Chapter 04
00:23:41.920 : ru:Chapter 05
00:33:21.124 : ru:Chapter 06
00:41:10.885 : ru:Chapter 07
00:50:14.803 : ru:Chapter 08
01:00:29.876 : ru:Chapter 09





Rip by:



   Похожие торренты   Торрент   Размер 
В этой теме нет новых непрочитанных сообщений. Коллектор (2016) BDRip 1080p | Лицензия

1041 | 49

4.37 ГБ

В этой теме нет новых непрочитанных сообщений. Коллектор (2016) BDRip 1080p от New-Team & qqss44 | Лицензия

577 | 73

5.75 ГБ

В этой теме нет новых непрочитанных сообщений. Коллектор (2016) BDRip-AVC от HELLYWOOD | Лицензия

1286 | 110

1.46 ГБ

В этой теме нет новых непрочитанных сообщений. Коллектор (2016) BDRip от Kaztorrents | КПК | Лицензия

84 | 7

388.68 МБ

В этой теме нет новых непрочитанных сообщений. Коллектор (2016) BDRip от MegaPeer | Лицензия

5475 | 515

1.32 ГБ

В этой теме нет новых непрочитанных сообщений. Коллектор (2016) BDRip 720p | Лицензия

237 | 26

4.69 ГБ

В этой теме нет новых непрочитанных сообщений. Коллектор (2016) BDRip-AVC от ExKinoRay | Лицензия

152 | 7

1.27 ГБ




Вы не можете начинать темы
Вы не можете отвечать на сообщения
Вы не можете редактировать свои сообщения
Вы не можете удалять свои сообщения
Вы не можете добавлять вложения

Перейти:  
Для Мосгорсуда, Роскомнадзора и рекламодателей: mosgorsud-torrent[собачка]yandex.ru
 Вход
ppkBB3cker v.2 © 2008-2014 @ PPK
[ Time : 0.014s | 13 Queries | GZIP : Off ]
CGP output time : 0.035s | 7 Queries | GZIP : Off

Торрент трекер RUTOR.IN, Не можете зайти на rutor.org? Какой новый адрес рутор? Какое зеркало рутор? Не работает rutor.org и зеркала? Тогда наш торрент специально для вас. Rutor.in неофициальное зеркало rutor. В случае если у Вас заблокирован rutor или вдруг Вы не можете на него зайти, то Вы без труда сможете скачать бесплатно и без рекламы последние новинки кино, игр, сериалов и прочего у нас, на Rutor.in. Не нужно использовать прокси, чтобы зайти на рутор, достаточно воспользоваться нашим ресурсом. Все новые фильмы, игры, сериалы, книги и музыка за 2013 и 2014 годы через торрент бесплатно. Скачивайте фильмы в хорошем качестве, игры для пк, xbox, playstation без регистрации. У нас вы найдете новые Зарубежные сериалы и Русские сериалы 2013, 2014, 2015 годов. Оставайтесь с нами, качайте любимые фильмы, игры, сериалы, книги и музыку.