img image001 image001 image001 image001 image001 image001 image001 image001 image001 image001 image001 image001 image001 image001 image001

Planets Sun Sun Sun
Статистика раздачи
Автор: Nickolas3434 | Размер: 4.69 ГБ | Добавлен: 21 ноя 2016
Раздают: 33    Качают: 2
Скачать торрент
Скачать торрент
Описание торрента

СообщениеДобавлено: 21 ноя 2016 

Информация о фильме
Оригинальное название: Коллектор
Год выхода: 2016
Жанр: Триллер, драма
Режиссер: Алексей Красовский
В ролях: Константин Хабенский, Евгений Стычкин, Ксения Буравская, Полина Агуреева, Кирилл Плетнёв, Валентина Лукащук, Александр Тютин, Игорь Золотовицкий, Никита Тюнин, Татьяна Лазарева
О фильме: Артур — мастер своего дела. Работая только с крупными должниками, он находит всю их подноготную и эффективно использует против них. Он никогда не прибегает к банальным методам, его конек — психологическая атака. Артур умеет виртуозно перевоплощаться, сбивать с толку, выводить из равновесия, и так допекать своих клиентов, что они готовы вернуть все, только бы никогда больше не слышать его голос. Но однажды Артур сам становится мишенью: в сети появляется скандальное видео с его участием, и от него мгновенно отворачиваются друзья и коллеги. Под угрозой оказывается не только его репутация, но и жизнь... Теперь у коллектора есть всего одна ночь чтобы найти того, кто загнал его в угол.

Выпущено: Россия, «Паприка Продакшн»
Продолжительность: 01:14:18
Язык: Русский
Файл
Формат: MKV
Качество: BDRip 720p
Видео: MPEG-4 AVC, 6710 kb/s, 1280x536
Аудио: Russian: AC3, 640 kb/s (6 ch) / DTS, 1509 kb/s (6 ch)
Субтитры: Русские, английские
Общее
Уникальный идентификатор : 183814901238711706309159040530879692038 (0x8A4976562603D5B2833CB15743ED3D06)
Полное имя : D:загрузкиKollektor.2016.720p.BluRay.mkv
Формат : Matroska
Версия формата : Version 2
Размер файла : 4,69 Гбайт
Продолжительность : 1 ч. 14 м.
Общий поток : 9038 Кбит/сек
Дата кодирования : UTC 2016-11-20 16:41:10
Программа кодирования : mkvmerge v7.8.0 ('River Man') 32bit built on Apr 3 2015 12:11:22
Библиотека кодирования : libebml v1.3.1 + libmatroska v1.4.2
Видео
Идентификатор : 1
Формат : AVC
Формат/Информация : Advanced Video Codec
Профиль формата : High@L4.1
Параметр CABAC формата : Да
Параметр ReFrames формата : 12 кадров
Идентификатор кодека : V_MPEG4/ISO/AVC
Продолжительность : 1 ч. 14 м.
Битрейт : 6709 Кбит/сек
Ширина : 1280 пикселей
Высота : 536 пикселей
Соотношение сторон : 2,40:1
Режим частоты кадров : Постоянный
Частота кадров : 23,976 кадра/сек
Цветовое пространство : YUV
Субдискретизация насыщенности : 4:2:0
Битовая глубина : 8 бит
Тип развёртки : Прогрессивная
Бит/(Пиксели*Кадры) : 0.408
Размер потока : 3,48 Гбайт (74%)
Библиотека кодирования : x264 core 148 r2721.18 cd45d75 VietHD_Custom_64
Настройки программы : cabac=1 / ref=12 / deblock=1:-3:-3 / analyse=0x3:0x133 / me=umh / subme=10 / psy=1 / fade_compensate=0.00 / psy_rd=1.10:0.00 / mixed_ref=1 / me_range=24 / chroma_me=1 / trellis=2 / 8x8dct=1 / cqm=0 / deadzone=21,11 / fast_pskip=0 / chroma_qp_offset=-2 / threads=12 / lookahead_threads=2 / sliced_threads=0 / nr=0 / decimate=0 / interlaced=0 / bluray_compat=0 / constrained_intra=0 / fgo=0 / bframes=9 / b_pyramid=2 / b_adapt=2 / b_bias=0 / direct=3 / weightb=1 / open_gop=0 / weightp=2 / keyint=250 / keyint_min=23 / scenecut=40 / intra_refresh=0 / rc_lookahead=60 / rc=crf / mbtree=0 / crf=17.3000 / qcomp=0.65 / qpmin=0:0:0 / qpmax=69:69:69 / qpstep=4 / vbv_maxrate=62500 / vbv_bufsize=78125 / crf_max=0.0 / nal_hrd=none / filler=0 / ip_ratio=1.30 / pb_ratio=1.20 / aq=3:0.70 / aq-sensitivity=10.00 / aq-factor=1.00:1.00:1.00 / aq2=0 / aq3=0
Язык : Russian
Default : Да
Forced : Нет
Коэффициенты матрицы : BT.709
Аудио #1
Идентификатор : 2
Формат : AC-3
Формат/Информация : Audio Coding 3
Расширение режима : CM (complete main)
Параметр Endianness формата : Big
Идентификатор кодека : A_AC3
Продолжительность : 1 ч. 14 м.
Вид битрейта : Постоянный
Битрейт : 640 Кбит/сек
Каналы : 6 каналов
Расположение каналов : Front: L C R, Side: L R, LFE
Частота : 48,0 КГц
Битовая глубина : 16 бит
Метод сжатия : С потерями
Размер потока : 340 Мбайт (7%)
Заголовок : AC3
Язык : Russian
Default : Да
Forced : Нет
Аудио #2
Идентификатор : 3
Формат : DTS
Формат/Информация : Digital Theater Systems
Режим : 16
Параметр Endianness формата : Big
Идентификатор кодека : A_DTS
Продолжительность : 1 ч. 14 м.
Вид битрейта : Постоянный
Битрейт : 1509 Кбит/сек
Каналы : 6 каналов
Расположение каналов : Front: L C R, Side: L R, LFE
Частота : 48,0 КГц
Битовая глубина : 24 бит
Метод сжатия : С потерями
Размер потока : 802 Мбайт (17%)
Заголовок : DTS
Язык : Russian
Default : Нет
Forced : Нет
Текст #1
Идентификатор : 4
Формат : UTF-8
Идентификатор кодека : S_TEXT/UTF8
Идентификатор кодека/Информация : UTF-8 Plain Text
Язык : Russian
Default : Нет
Forced : Нет
Текст #2
Идентификатор : 5
Формат : UTF-8
Идентификатор кодека : S_TEXT/UTF8
Идентификатор кодека/Информация : UTF-8 Plain Text
Язык : English
Default : Нет
Forced : Нет
Меню
00:00:00.000 : en:00:00:00.000
00:00:38.956 : en:00:00:38.956
00:07:29.866 : en:00:07:29.866
00:14:41.547 : en:00:14:41.547
00:23:41.920 : en:00:23:41.920
00:33:21.124 : en:00:33:21.124
00:41:10.885 : en:00:41:10.885
00:50:14.803 : en:00:50:14.803
01:00:29.876 : en:01:00:29.876



   Похожие торренты   Торрент   Размер 
В этой теме нет новых непрочитанных сообщений. Коллектор (2016) BDRip 720p от HELLYWOOD | Лицензия

295 | 2

2.91 ГБ

В этой теме нет новых непрочитанных сообщений. Коллектор (2016) BDRip-AVC от ExKinoRay | Лицензия

49 | 0

1.27 ГБ

В этой теме нет новых непрочитанных сообщений. Коллектор (2016) BDRip от MegaPeer | Лицензия

1691 | 35

1.32 ГБ

В этой теме нет новых непрочитанных сообщений. Коллектор (2016) BDRip от ExKinoRay | Лицензия

124 | 1

1.37 ГБ

В этой теме нет новых непрочитанных сообщений. Коллектор (2016) BDRip от HQCLUB | Лицензия

18 | 0

1.1 ГБ

В этой теме нет новых непрочитанных сообщений. Коллектор (2016) BDRip 1080p | Лицензия

145 | 5

7.73 ГБ

В этой теме нет новых непрочитанных сообщений. Коллектор (2016) BDRip 1080p | Лицензия

41 | 0

4.37 ГБ




Вы не можете начинать темы
Вы не можете отвечать на сообщения
Вы не можете редактировать свои сообщения
Вы не можете удалять свои сообщения
Вы не можете добавлять вложения

Перейти:  
Для Мосгорсуда, Роскомнадзора и рекламодателей: mosgorsud-torrent[собачка]yandex.ru
 Вход
ppkBB3cker v.2 © 2008-2014 @ PPK
[ Time : 0.036s | 16 Queries | GZIP : Off ]

cron