img image001 image001 image001 image001 image001 image001 image001 image001 image001 image001 image001 image001 image001 image001 image001

Planets Sun Sun Sun
Статистика раздачи
Автор: PriZraK | Размер: 743.22 МБ | Добавлен: 22 ноя 2016
Раздают: 17    Качают: 3
Скачать торрент
Скачать торрент
Описание торрента

СообщениеДобавлено: 22 ноя 2016 


Информация о фильме
Название: Финист - Ясный Сокол
Год выхода: 1975
Жанр: Сказка, детский, семейный
Режиссер: Геннадий Васильев
В ролях: Вячеслав Воскресенский, Михаил Пуговкин, Людмила Хитяева, Светлана Орлова, Георгий Милляр, Георгий Вицин, Михаил Кононов, Гликерия Богданова-Чеснокова, Мария Барабанова, Анна Строганова, Алексей Смирнов (I), Марк Перцовский, Лев Потёмкин
О фильме:
Жил да был на земле храбрый и добрый богатырь, по прозванию Финист - Ясный Сокол. Славился он своей силой, отвагой и отзывчивым сердцем. Но напал на русскую землю злой враг Картаус. И превратил он богатыря в чудище лесное, заколдовал с условием, что вновь станет Финист человеком, если полюбит его в облике чудища прекрасная девушка Аленушка. "... Про былое с небылицею, да про молодца с девицею. Про любовь большую, светлую, про отвагу богатырскую, да про нашу землю добрую, что родит героев-соколов..."

Страна: СССР
Студия: Имени М. Горького
Продолжительность: 01:14:51
Перевод: Не требуется
Файл
Кодек: XviD
Качество: DVDRip
Видео: 640x272 (2.35:1), 25 fps, XviD build 73 ~1250 kbps avg, 0.29 bit/pixel
Звук: 48 kHz, MPEG Layer 3, 2 ch, ~128.00 kbps avg
Субтитры: Отсутствуют
Семпл
General
Complete name : D:Изготовление рипаFinist.Yasnyj.Sokol.1975.DVDRip by shkiper.avi
Format : AVI
Format/Info : Audio Video Interleave
File size : 743 MiB
Duration : 1 h 14 min
Overall bit rate : 1 388 kb/s
Writing application : VirtualDubMod 1.5.10.3 | www.virtualdub-fr.org || (build 2550/release)
Writing library : VirtualDubMod build 2550/release
Video
ID : 0
Format : MPEG-4 Visual
Format profile : Advanced Simple@L5
Format settings, BVOP : 1
Format settings, QPel : No
Format settings, GMC : No warppoints
Format settings, Matrix : Custom
Codec ID : XVID
Codec ID/Hint : XviD
Duration : 1 h 14 min
Bit rate : 1 251 kb/s
Width : 640 pixels
Height : 272 pixels
Display aspect ratio : 2.35:1
Frame rate : 25.000 FPS
Color space : YUV
Chroma subsampling : 4:2:0
Bit depth : 8 bits
Scan type : Progressive
Compression mode : Lossy
Bits/(Pixel*Frame) : 0.287
Stream size : 669 MiB (90%)
Writing library : XviD 73
Audio
ID : 1
Format : MPEG Audio
Format version : Version 1
Format profile : Layer 3
Codec ID : 55
Codec ID/Hint : MP3
Duration : 1 h 14 min
Bit rate mode : Constant
Bit rate : 128 kb/s
Channel(s) : 2 channels
Sampling rate : 48.0 kHz
Compression mode : Lossy
Stream size : 68.5 MiB (9%)
Alignment : Aligned on interleaves
Interleave, duration : 40 ms (1.00 video frame)
Interleave, preload duratio : 504 ms
Writing library : LAME3.99r
Encoding settings : -m s -V 4 -q 2 -lowpass 17 -b 128

Релиз от:



   Похожие торренты   Торрент   Размер 
В этой теме нет новых непрочитанных сообщений. Финист - ясный сокол (1975) DVDRip

687 | 29

1.37 ГБ

В этой теме нет новых непрочитанных сообщений. Финист - Ясный Сокол (1975) DVDRip от Alekxandr48

90 | 7

701.36 МБ

В этой теме нет новых непрочитанных сообщений. Финист - Ясный Сокол (1975) DVD9

17 | 5

6.98 ГБ

В этой теме нет новых непрочитанных сообщений. Сказки Александра Роу: Королевство кривых зеркал; Морозко; Финист - Ясный сокол (1963-1975) DVD5

287 | 18

4.15 ГБ

В этой теме нет новых непрочитанных сообщений. Андрей Платонов - Финист - ясный сокол и другие сказки (2012) MP3

82 | 5

296.21 МБ

В этой теме нет новых непрочитанных сообщений. На ясный огонь (1975) SATRip

77 | 23

1.37 ГБ

В этой теме нет новых непрочитанных сообщений. Сборник мультфильмов - Лесные сказки (1975-1987) DVDRip от ImperiaFilm

111 | 14

4.43 ГБ




Вы не можете начинать темы
Вы не можете отвечать на сообщения
Вы не можете редактировать свои сообщения
Вы не можете удалять свои сообщения
Вы не можете добавлять вложения

Перейти:  
Для Мосгорсуда, Роскомнадзора и рекламодателей: mosgorsud-torrent[собачка]yandex.ru
 Вход
ppkBB3cker v.2 © 2008-2014 @ PPK
[ Time : 0.020s | 14 Queries | GZIP : Off ]

Торрент трекер RUTOR.IN, Не можете зайти на rutor.org? Какой новый адрес рутор? Какое зеркало рутор? Не работает rutor.org и зеркала? Тогда наш торрент специально для вас. Rutor.in неофициальное зеркало rutor. В случае если у Вас заблокирован rutor или вдруг Вы не можете на него зайти, то Вы без труда сможете скачать бесплатно и без рекламы последние новинки кино, игр, сериалов и прочего у нас, на Rutor.in. Не нужно использовать прокси, чтобы зайти на рутор, достаточно воспользоваться нашим ресурсом. Все новые фильмы, игры, сериалы, книги и музыка за 2013 и 2014 годы через торрент бесплатно. Скачивайте фильмы в хорошем качестве, игры для пк, xbox, playstation без регистрации. У нас вы найдете новые Зарубежные сериалы и Русские сериалы 2013, 2014, 2015 годов. Оставайтесь с нами, качайте любимые фильмы, игры, сериалы, книги и музыку.