img image001 image001 image001 image001 image001 image001 image001 image001 image001 image001 image001 image001 image001 image001 image001

Planets Sun Sun Sun
Статистика раздачи
Автор: PriZraK | Размер: 5.75 ГБ | Добавлен: 23 ноя 2016
Раздают: 141    Качают: 0
Скачать торрент
Скачать торрент
Описание торрента

СообщениеДобавлено: 23 ноя 2016 


Анонсы 1080p от qqss44


✘ Коллектор ✘



Информация о фильме
✦ Год выхода: 2016
✦ Название: Коллектор
✦ Жанр: Триллер, драма
✦ Режиссер: Алексей Красовский
✦ В ролях: Константин Хабенский, Евгений Стычкин, Ксения Буравская, Полина Агуреева, Кирилл Плетнёв, Валентина Лукащук, Александр Тютин, Игорь Золотовицкий, Никита Тюнин, Татьяна Лазарева

Описание фильма
Артур — мастер своего дела. Работая только с крупными должниками, он находит всю их подноготную и эффективно использует против них. Он никогда не прибегает к банальным методам, его конек — психологическая атака. Артур умеет виртуозно перевоплощаться, сбивать с толку, выводить из равновесия, и так допекать своих клиентов, что они готовы вернуть все, только бы никогда больше не слышать его голос. Но однажды Артур сам становится мишенью: в сети появляется скандальное видео с его участием, и от него мгновенно отворачиваются друзья и коллеги. Под угрозой оказывается не только его репутация, но и жизнь... Теперь у коллектора есть всего одна ночь чтобы найти того, кто загнал его в угол.

✦ Выпущено: Россия, «Паприка Продакшн»
✦ Продолжительность: 01:14:18
✦ Язык: русский


Информация о файле
✦ Формат:| MKV | x264 |
✦ Качество: BDRip 1080p
✦ Видео: X264/MPEG4-AVC | 1920x804 (2.40:1) | ~10440 kbps | 23,976 fps
✦ Аудио Rus: AC3 | 48 KHz | 5.1 (Front: L С R Side: L R) + LFE | ~640 kbps
✦ Субтитры: || Русские (полные) | |

x264 [info]: frame I:490 Avg QP:14.89 size:173458
x264 [info]: frame P:19605 Avg QP:17.28 size: 91146
x264 [info]: frame B:86797 Avg QP:19.17 size: 45402
Общее
Уникальный идентификатор : 200254435978269584316509693677322203183 (0x96A799FA3ED6193BBAFCD8B0AE7D702F)
Полное имя : X:ATorrentKollektor.(2016).BDRip.1080p.(qqss44).mkv
Формат : Matroska
Версия формата : Version 2
Размер файла : 5,75 Гбайт
Продолжительность : 1 ч. 14 м.
Общий поток : 11,1 Мбит/сек
Название фильма : Kollektor.(2016).BDRip.1080p.(qqss44)
Дата кодирования : UTC 2016-11-22 08:50:18
Программа кодирования : mkvmerge v7.9.0 ('Birds') 64bit
Библиотека кодирования : libebml v1.3.1 + libmatroska v1.4.2
Видео
Идентификатор : 1
Формат : AVC
Формат/Информация : Advanced Video Codec
Профиль формата : High@L4.1
Параметр CABAC формата : Да
Параметр ReFrames формата : 5 кадров
Идентификатор кодека : V_MPEG4/ISO/AVC
Продолжительность : 1 ч. 14 м.
Битрейт : 10,4 Мбит/сек
Ширина : 1920 пикселей
Высота : 804 пикселя
Соотношение сторон : 2,40:1
Режим частоты кадров : Постоянный
Частота кадров : 23,976 (24000/1001) кадра/сек
Цветовое пространство : YUV
Субдискретизация насыщенности : 4:2:0
Битовая глубина : 8 бит
Тип развёртки : Прогрессивная
Бит/(Пиксели*Кадры) : 0.282
Размер потока : 5,41 Гбайт (94%)
Заголовок : Kollektor.(2016)
Библиотека кодирования : x264 core 148 r2721kMod 72d53ab
Настройки программы : cabac=1 / ref=5 / deblock=1:-3:-3 / analyse=0x3:0x133 / me=umh / subme=11 / psy=1 / fade_compensate=0.00 / psy_rd=1.00:0.00 / mixed_ref=1 / me_range=32 / chroma_me=1 / trellis=2 / 8x8dct=1 / cqm=0 / deadzone=21,11 / fast_pskip=0 / chroma_qp_offset=-2 / threads=12 / lookahead_threads=3 / sliced_threads=0 / nr=0 / decimate=0 / interlaced=0 / bluray_compat=0 / constrained_intra=0 / fgo=0 / bframes=10 / b_pyramid=2 / b_adapt=2 / b_bias=0 / direct=3 / weightb=1 / open_gop=0 / weightp=2 / keyint=240 / keyint_min=23 / scenecut=40 / intra_refresh=0 / rc=2pass / mbtree=0 / bitrate=10440 / ratetol=1.0 / qcomp=0.60 / qpmin=0 / qpmax=69 / qpstep=4 / cplxblur=20.0 / qblur=0.5 / ip_ratio=1.40 / pb_ratio=1.30 / aq=3:0.70
Язык : English
Default : Да
Forced : Нет
Аудио
Идентификатор : 2
Формат : AC-3
Формат/Информация : Audio Coding 3
Расширение режима : CM (complete main)
Параметр Endianness формата : Big
Идентификатор кодека : A_AC3
Продолжительность : 1 ч. 14 м.
Вид битрейта : Постоянный
Битрейт : 640 Кбит/сек
Каналы : 6 каналов
Расположение каналов : Front: L C R, Side: L R, LFE
Частота : 48,0 КГц
Частота кадров : 31,250 кадров/сек (1536 spf)
Метод сжатия : С потерями
Размер потока : 340 Мбайт (6%)
Заголовок : DD5.1 @ 640 kbps
Язык : Russian
Default : Да
Forced : Нет
Текст
Идентификатор : 3
Формат : UTF-8
Идентификатор кодека : S_TEXT/UTF8
Идентификатор кодека/Информация : UTF-8 Plain Text
Продолжительность : 1 ч. 10 м.
Битрейт : 151 бит/сек
Count of elements : 1103
Размер потока : 78,0 Кбайт (0%)
Язык : Russian
Default : Нет
Forced : Нет
Меню
00:00:00.000 : en:(01)00:00:00:000
00:00:38.955 : en:(02)00:00:38:955
00:07:29.866 : en:(03)00:07:29:866
00:14:41.547 : en:(04)00:14:41:547
00:23:41.920 : en:(05)00:23:41:920
00:33:21.124 : en:(06)00:33:21:124
00:41:10.885 : en:(07)00:41:10:885
00:50:14.803 : en:(08)00:50:14:803
01:00:29.876 : en:(09)01:00:29:876

Релиз от:



   Похожие торренты   Торрент   Размер 
В этой теме нет новых непрочитанных сообщений. Коллектор (2016) BDRip 1080p | Лицензия

220 | 13

7.73 ГБ

В этой теме нет новых непрочитанных сообщений. Коллектор (2016) BDRip 1080p | Лицензия

85 | 2

4.37 ГБ

В этой теме нет новых непрочитанных сообщений. Зверопой / Sing (2016) BDRip 1080p от New-Team & qqss44 | Лицензия

2021 | 119

7.56 ГБ

В этой теме нет новых непрочитанных сообщений. Варкрафт / Warcraft (2016) BDRip 1080p от New-Team & qqss44 | Лицензия

331 | 9

7.7 ГБ

В этой теме нет новых непрочитанных сообщений. Ограды / Fences (2016) BDRip 1080p от New-Team & qqss44 | Лицензия

244 | 41

7.76 ГБ

В этой теме нет новых непрочитанных сообщений. Отмель / The Shallows (2016) BDRip 1080p от New-Team & qqss44 | Лицензия

85 | 13

7.75 ГБ

В этой теме нет новых непрочитанных сообщений. Не дыши / Don't Breathe (2016) BDRip 1080p от New-Team & qqss44 | Лицензия

483 | 32

5.76 ГБ




Вы не можете начинать темы
Вы не можете отвечать на сообщения
Вы не можете редактировать свои сообщения
Вы не можете удалять свои сообщения
Вы не можете добавлять вложения

Перейти:  
Для Мосгорсуда, Роскомнадзора и рекламодателей: mosgorsud-torrent[собачка]yandex.ru
 Вход
ppkBB3cker v.2 © 2008-2014 @ PPK
[ Time : 0.035s | 16 Queries | GZIP : Off ]

Торрент трекер RUTOR.IN, Не можете зайти на rutor.org? Какой новый адрес рутор? Какое зеркало рутор? Не работает rutor.org и зеркала? Тогда наш торрент специально для вас. Rutor.in неофициальное зеркало rutor. В случае если у Вас заблокирован rutor или вдруг Вы не можете на него зайти, то Вы без труда сможете скачать бесплатно и без рекламы последние новинки кино, игр, сериалов и прочего у нас, на Rutor.in. Не нужно использовать прокси, чтобы зайти на рутор, достаточно воспользоваться нашим ресурсом. Все новые фильмы, игры, сериалы, книги и музыка за 2013 и 2014 годы через торрент бесплатно. Скачивайте фильмы в хорошем качестве, игры для пк, xbox, playstation без регистрации. У нас вы найдете новые Зарубежные сериалы и Русские сериалы 2013, 2014, 2015 годов. Оставайтесь с нами, качайте любимые фильмы, игры, сериалы, книги и музыку.
cron