img image001 image001 image001 image001 image001 image001 image001 image001 image001 image001 image001 image001 image001 image001 image001

Planets Sun Sun Sun
Статистика раздачи
Автор: Nickolas3434 | Размер: 749.03 МБ | Добавлен: 25 ноя 2016
Раздают: 3    Качают: 0
Скачать торрент
Скачать торрент
Описание торрента

СообщениеДобавлено: 25 ноя 2016 


Информация о фильме
Название: Дядя Ваня
Год выхода: 1970
Жанр: Драма
Режиссер: Андрей Кончаловский
В ролях: Иннокентий Смоктуновский, Сергей Бондарчук ст., Ирина Купченко, Ирина Мирошниченко, Владимир Зельдин, Николай Пастухов, Ирина Анисимова-Вульф, Екатерина Мазурова, Владимир Бутенко
О фильме:
Драма русских провинциалов, считающих, что жизнь их не состоялась и растрачена понапрасну. Для дяди Вани это ощущение усугубляется неразделенной любовью к женщине, которую судьба на короткое время забросила в захолустное поместье, где герой и его племянница десятилетиями работают, едва сводя концы с концами…

Страна: СССР
Студия: Мосфильм
Продолжительность: 01:38:39
Перевод: Не требуется
Файл
Кодек: XviD
Качество: HDTVRip
Видео: 512x384 (1.33:1), 25 fps, XviD build 73 ~923 kbps avg, 0.19 bit/pixel
Звук: 48 kHz, MPEG Layer 3, 2 ch, ~128.00 kbps avg
Субтитры: Отсутствуют
Семпл
General
Complete name : D:Изготовление рипаDjadja Vanja.1970.HDTVRip by shkiper.avi
Format : AVI
Format/Info : Audio Video Interleave
File size : 749 MiB
Duration : 1 h 38 min
Overall bit rate : 1 062 kb/s
Writing application : VirtualDubMod 1.5.10.3 | www.virtualdub-fr.org || (build 2550/release)
Writing library : VirtualDubMod build 2550/release
Video
ID : 0
Format : MPEG-4 Visual
Format profile : Advanced Simple@L5
Format settings, BVOP : 1
Format settings, QPel : No
Format settings, GMC : No warppoints
Format settings, Matrix : Custom
Codec ID : XVID
Codec ID/Hint : XviD
Duration : 1 h 38 min
Bit rate : 924 kb/s
Width : 512 pixels
Height : 384 pixels
Display aspect ratio : 4:3
Frame rate : 25.000 FPS
Color space : YUV
Chroma subsampling : 4:2:0
Bit depth : 8 bits
Scan type : Progressive
Compression mode : Lossy
Bits/(Pixel*Frame) : 0.188
Stream size : 652 MiB (87%)
Writing library : XviD 73
Audio
ID : 1
Format : MPEG Audio
Format version : Version 1
Format profile : Layer 3
Codec ID : 55
Codec ID/Hint : MP3
Duration : 1 h 38 min
Bit rate mode : Constant
Bit rate : 128 kb/s
Channel(s) : 2 channels
Sampling rate : 48.0 kHz
Compression mode : Lossy
Stream size : 90.3 MiB (12%)
Alignment : Aligned on interleaves
Interleave, duration : 40 ms (1.00 video frame)
Interleave, preload duratio : 504 ms
Writing library : LAME3.99r
Encoding settings : -m s -V 4 -q 2 -lowpass 17 -b 128

Релиз от:



   Похожие торренты   Торрент   Размер 
В этой теме нет новых непрочитанных сообщений. Дядя Ваня (1970) HDTVRip 720р

5 | 1

3.05 ГБ

В этой теме нет новых непрочитанных сообщений. Дядя Ваня (1970) DVDRip

267 | 12

1.37 ГБ

В этой теме нет новых непрочитанных сообщений. Чехов А.П. - Дядя Ваня (2008) MP3

143 | 8

192.33 МБ

В этой теме нет новых непрочитанных сообщений. Спектакль. Дядя Ваня (2009) TVRip

8 | 5

2.28 ГБ

В этой теме нет новых непрочитанных сообщений. Дядя / Uncle [S01] (2014) HDTVRip | Sub

22 | 23

1.55 ГБ

В этой теме нет новых непрочитанных сообщений. Дядя и зефир / Ojisan to Marshmallow [TV] [01 из 12] (2016) HDTVRip 720p | AniFilm

3 | 2

63.34 МБ

В этой теме нет новых непрочитанных сообщений. Дядя и зефир / Ojisan to Marshmallow [TV] [01 из 12] (2016) HDTVRip 720p | AniFilm

28 | 0

213.68 МБ




Вы не можете начинать темы
Вы не можете отвечать на сообщения
Вы не можете редактировать свои сообщения
Вы не можете удалять свои сообщения
Вы не можете добавлять вложения

Перейти:  
Для Мосгорсуда, Роскомнадзора и рекламодателей: mosgorsud-torrent[собачка]yandex.ru
 Вход
ppkBB3cker v.2 © 2008-2014 @ PPK
[ Time : 0.131s | 14 Queries | GZIP : Off ]

Торрент трекер RUTOR.IN, Не можете зайти на rutor.org? Какой новый адрес рутор? Какое зеркало рутор? Не работает rutor.org и зеркала? Тогда наш торрент специально для вас. Rutor.in неофициальное зеркало rutor. В случае если у Вас заблокирован rutor или вдруг Вы не можете на него зайти, то Вы без труда сможете скачать бесплатно и без рекламы последние новинки кино, игр, сериалов и прочего у нас, на Rutor.in. Не нужно использовать прокси, чтобы зайти на рутор, достаточно воспользоваться нашим ресурсом. Все новые фильмы, игры, сериалы, книги и музыка за 2013 и 2014 годы через торрент бесплатно. Скачивайте фильмы в хорошем качестве, игры для пк, xbox, playstation без регистрации. У нас вы найдете новые Зарубежные сериалы и Русские сериалы 2013, 2014, 2015 годов. Оставайтесь с нами, качайте любимые фильмы, игры, сериалы, книги и музыку.