img image001 image001 image001 image001 image001 image001 image001 image001 image001 image001 image001 image001 image001 image001 image001

Planets Sun Sun Sun
Статистика раздачи
Автор: PriZraK | Размер: 1.09 ГБ | Добавлен: 26 ноя 2016
Раздают: 10    Качают: 5
Скачать торрент
Скачать торрент
Описание торрента

СообщениеДобавлено: 26 ноя 2016 

Страна: СССР
Производство: Киевская студия художественных фильмов
Жанр: драма, мелодрама
Год выпуска: 1956
Продолжительность: 01:13:42
Перевод: Не требуется
Cубтитры: нет
Оригинальная аудиодорожка: русский
Режиссер: Григорий Крикун
В ролях:
Ия Арепина, Юрий Чекулаев, Фёдор Брайченко, Сергей Ромоданов, Валентина Телегина, И. Крымчак, Софья Карамаш, Людмила Татьянчук, Степан Шкурат, Майя Казакова, Иван Матвеев...
Полный список актёров
Описание:
По повести Олеся Гончара "Пусть горит огонёк".
На небольшом островке живёт семья служителя маяка, бывшего боцмана Лелеки. Марийка, дочь Лелеки, влюблена в Игоря, капитана морского катера, который время от времени привозит светильный газ для маяка. Встречи Марийки и Игоря доставляют страдание влюбленному в Марийку мотористу Дёме. Вскоре Игорь увлекается другой девушкой. Напрасно ожидает его доверчивая Марийка…





Источник: WEB-DL 576i
Качество видео: WEB-DLRip
Формат видео: AVI
Видео: 720x544 (4:3), 25 fps, XviD ~ 1916 kbps avg, 0.196 bit/pixel
Аудио: 48 kHz, Dolby Digital AC3 2.0, 192 kbps
Раздача от:
Общее
Полное имя : Devushka.s.mayaka.1956.SATRip_[New-team]_by_AVP_Studio.avi
Формат : AVI
Формат/Информация : Audio Video Interleave
Размер файла : 1,09 Гбайт
Продолжительность : 1 ч. 13 м.
Общий поток : 2118 Кбит/сек
Программа кодирования : VirtualDubMod 1.5.10.3 | www.virtualdub-fr.org || (build 2550/release)
Библиотека кодирования : VirtualDubMod build 2550/release
Видео
Идентификатор : 0
Формат : MPEG-4 Visual
Профиль формата : Advanced Simple@L5
Параметр BVOP формата : 1
Параметр QPel формата : Нет
Параметр GMC формата : Без точки перехода
Параметр матрицы формата : Выборочная
Идентификатор кодека : XVID
Идентификатор кодека/Подсказка : XviD
Продолжительность : 1 ч. 13 м.
Битрейт : 1916 Кбит/сек
Ширина : 720 пикселей
Высота : 544 пикселя
Соотношение сторон : 4:3
Частота кадров : 25,000 кадров/сек
Цветовое пространство : YUV
Субдискретизация насыщенности : 4:2:0
Битовая глубина : 8 бит
Тип развёртки : Прогрессивная
Метод сжатия : С потерями
Бит/(Пиксели*Кадры) : 0.196
Размер потока : 1010 Мбайт (90%)
Библиотека кодирования : XviD 1.2.1 (UTC 2008-12-04)
Аудио
Идентификатор : 1
Формат : AC-3
Формат/Информация : Audio Coding 3
Расширение режима : CM (complete main)
Параметр Endianness формата : Big
Идентификатор кодека : 2000
Продолжительность : 1 ч. 13 м.
Вид битрейта : Постоянный
Битрейт : 192 Кбит/сек
Каналы : 2 канала
Расположение каналов : Front: L R
Частота : 48,0 КГц
Частота кадров : 31,250 кадров/сек (1536 spf)
Битовая глубина : 16 бит
Метод сжатия : С потерями
Размер потока : 101 Мбайт (9%)
Выравнивание : Разделение по промежуткам
Продолжительность промежутка : 40 мс. (1,00 видеокадр)
Время предзагрузки промежутка : 500 мс





   Похожие торренты   Торрент   Размер 
В этой теме нет новых непрочитанных сообщений. Девушка с маяка (1956) WEB-DLRip от New-Team

25 | 9

745.65 МБ

В этой теме нет новых непрочитанных сообщений. Девушка с маяка (1956) WEB-DLRip-AVC от New-Team

42 | 4

1.09 ГБ

В этой теме нет новых непрочитанных сообщений. Эта девушка не может иначе / The Girl Can't Help It (1956) DVDRip от AndrewWhite

5 | 3

1.37 ГБ

В этой теме нет новых непрочитанных сообщений. Девушка с татуировкой дракона + Девушка, которая играла с огнем + Девушка, которая взрывала воздушные замки / The Girl... - Trilogy (2009) BDRip 720p от R.G. GoldenShara

39 | 25

13.1 ГБ

В этой теме нет новых непрочитанных сообщений. Не та, так эта (1956) SATRip-AVC от New-Team

8 | 3

1.09 ГБ

В этой теме нет новых непрочитанных сообщений. Не та, так эта (1956) SATRip от New-Team

5 | 2

1.09 ГБ

В этой теме нет новых непрочитанных сообщений. Девушка с татуировкой дракона / Девушка, которая играла с огнем / Девушка, которая взрывала воздушные замки / Män som hatar kvinnor / Flickan som lekte med elden / Luftslottet som sprängdes (2009) BDRip-AVC от RuBit

201 | 10

4.36 ГБ




Вы не можете начинать темы
Вы не можете отвечать на сообщения
Вы не можете редактировать свои сообщения
Вы не можете удалять свои сообщения
Вы не можете добавлять вложения

Перейти:  
Для Мосгорсуда, Роскомнадзора и рекламодателей: mosgorsud-torrent[собачка]yandex.ru
 Вход
ppkBB3cker v.2 © 2008-2014 @ PPK
[ Time : 0.054s | 15 Queries | GZIP : Off ]

Торрент трекер RUTOR.IN, Не можете зайти на rutor.org? Какой новый адрес рутор? Какое зеркало рутор? Не работает rutor.org и зеркала? Тогда наш торрент специально для вас. Rutor.in неофициальное зеркало rutor. В случае если у Вас заблокирован rutor или вдруг Вы не можете на него зайти, то Вы без труда сможете скачать бесплатно и без рекламы последние новинки кино, игр, сериалов и прочего у нас, на Rutor.in. Не нужно использовать прокси, чтобы зайти на рутор, достаточно воспользоваться нашим ресурсом. Все новые фильмы, игры, сериалы, книги и музыка за 2013 и 2014 годы через торрент бесплатно. Скачивайте фильмы в хорошем качестве, игры для пк, xbox, playstation без регистрации. У нас вы найдете новые Зарубежные сериалы и Русские сериалы 2013, 2014, 2015 годов. Оставайтесь с нами, качайте любимые фильмы, игры, сериалы, книги и музыку.