img image001 image001 image001 image001 image001 image001 image001 image001 image001 image001 image001 image001 image001 image001 image001

Planets Sun Sun Sun
Статистика раздачи
Автор: PriZraK | Размер: 745.65 МБ | Добавлен: 25 ноя 2016
Раздают: 0    Качают: 3
Скачать торрент
Скачать торрент
Описание торрента

СообщениеДобавлено: 25 ноя 2016 

Страна: СССР
Производство: Киевская студия художественных фильмов
Жанр: драма, мелодрама
Год выпуска: 1956
Продолжительность: 01:13:42
Перевод: Не требуется
Cубтитры: нет
Оригинальная аудиодорожка: русский
Режиссер: Григорий Крикун
В ролях:
Ия Арепина, Юрий Чекулаев, Фёдор Брайченко, Сергей Ромоданов, Валентина Телегина, И. Крымчак, Софья Карамаш, Людмила Татьянчук, Степан Шкурат, Майя Казакова, Иван Матвеев...
Полный список актёров
Описание:
По повести Олеся Гончара "Пусть горит огонёк".
На небольшом островке живёт семья служителя маяка, бывшего боцмана Лелеки. Марийка, дочь Лелеки, влюблена в Игоря, капитана морского катера, который время от времени привозит светильный газ для маяка. Встречи Марийки и Игоря доставляют страдание влюбленному в Марийку мотористу Дёме. Вскоре Игорь увлекается другой девушкой. Напрасно ожидает его доверчивая Марийка…





Источник: WEB-DL 576i
Качество видео: WEB-DLRip
Формат видео: AVI
Видео: 640x480 (4:3), 25 fps, XviD ~ 1277 kbps avg, 0.166 bit/pixel
Аудио: 48 kHz, MP3 2.0, 128 kbps
Раздача от:
Общее
Полное имя : Devushka.s.mayaka.1956.SATRip-745_[New-team]_by_AVP_Studio.avi
Формат : AVI
Формат/Информация : Audio Video Interleave
Размер файла : 746 Мбайт
Продолжительность : 1 ч. 13 м.
Общий поток : 1415 Кбит/сек
Программа кодирования : VirtualDubMod 1.5.10.3 | www.virtualdub-fr.org || (build 2550/release)
Библиотека кодирования : VirtualDubMod build 2550/release
Видео
Идентификатор : 0
Формат : MPEG-4 Visual
Профиль формата : Advanced Simple@L5
Параметр BVOP формата : 1
Параметр QPel формата : Нет
Параметр GMC формата : Без точки перехода
Параметр матрицы формата : Выборочная
Идентификатор кодека : XVID
Идентификатор кодека/Подсказка : XviD
Продолжительность : 1 ч. 13 м.
Битрейт : 1277 Кбит/сек
Ширина : 640 пикселей
Высота : 480 пикселей
Соотношение сторон : 4:3
Частота кадров : 25,000 кадров/сек
Цветовое пространство : YUV
Субдискретизация насыщенности : 4:2:0
Битовая глубина : 8 бит
Тип развёртки : Прогрессивная
Метод сжатия : С потерями
Бит/(Пиксели*Кадры) : 0.166
Размер потока : 673 Мбайт (90%)
Библиотека кодирования : XviD 1.2.1 (UTC 2008-12-04)
Аудио
Идентификатор : 1
Формат : MPEG Audio
Версия формата : Version 1
Профиль формата : Layer 3
Идентификатор кодека : 55
Идентификатор кодека/Подсказка : MP3
Продолжительность : 1 ч. 13 м.
Вид битрейта : Постоянный
Битрейт : 128 Кбит/сек
Каналы : 2 канала
Частота : 48,0 КГц
Метод сжатия : С потерями
Размер потока : 67,5 Мбайт (9%)
Выравнивание : Разделение по промежуткам
Продолжительность промежутка : 40 мс. (1,00 видеокадр)
Время предзагрузки промежутка : 500 мс.
Библиотека кодирования : LAME3.99r
Настройки программы : -m s -V 4 -q 2 -lowpass 17 -b 128





   Похожие торренты   Торрент   Размер 
В этой теме нет новых непрочитанных сообщений. Девушка с маяка (1956) WEB-DLRip-AVC от New-Team

2 | 0

1.09 ГБ

В этой теме нет новых непрочитанных сообщений. Девушка с маяка (1956) WEB-DLRip от New-Team

3 | 0

1.09 ГБ

В этой теме нет новых непрочитанных сообщений. Эта девушка не может иначе / The Girl Can't Help It (1956) DVDRip от AndrewWhite

5 | 3

1.37 ГБ

В этой теме нет новых непрочитанных сообщений. Девушка с татуировкой дракона + Девушка, которая играла с огнем + Девушка, которая взрывала воздушные замки / The Girl... - Trilogy (2009) BDRip 720p от R.G. GoldenShara

39 | 25

13.1 ГБ

В этой теме нет новых непрочитанных сообщений. Не та, так эта (1956) SATRip от New-Team

1 | 0

1.09 ГБ

В этой теме нет новых непрочитанных сообщений. Не та, так эта (1956) SATRip-AVC от New-Team

2 | 0

1.09 ГБ

В этой теме нет новых непрочитанных сообщений. Девушка с татуировкой дракона / Девушка, которая играла с огнем / Девушка, которая взрывала воздушные замки / Män som hatar kvinnor / Flickan som lekte med elden / Luftslottet som sprängdes (2009) BDRip-AVC от RuBit

201 | 10

4.36 ГБ




Вы не можете начинать темы
Вы не можете отвечать на сообщения
Вы не можете редактировать свои сообщения
Вы не можете удалять свои сообщения
Вы не можете добавлять вложения

Перейти:  
Для Мосгорсуда, Роскомнадзора и рекламодателей: mosgorsud-torrent[собачка]yandex.ru
 Вход
ppkBB3cker v.2 © 2008-2014 @ PPK
[ Time : 0.047s | 17 Queries | GZIP : Off ]

cron