img image001 image001 image001 image001 image001 image001 image001 image001 image001 image001 image001 image001 image001 image001 image001

Planets Sun Sun Sun
Статистика раздачи
Автор: Nickolas3434 | Размер: 745.69 МБ | Добавлен: 27 ноя 2016
Раздают: 13    Качают: 2
Скачать торрент
Скачать торрент
Описание торрента

СообщениеДобавлено: 27 ноя 2016 

Страна: СССР
Производство: Мосфильм
Жанр: комедия
Год выпуска: 1977
Продолжительность: 01:31:18
Перевод: Не требуется
Cубтитры: нет
Оригинальная аудиодорожка: русский
Режиссёр: Георгий Данелия
В ролях:
Вахтанг Кикабидзе, Фрунзик Мкртчян, Елена Проклова, Евгений Леонов, Коте (Константин) Даушвили, Руслан Микаберидзе, Закро Сахвадзе, Марина Дюжева, Русико Морчеладзе, Арчил Гомиашвили...
Полный список актёров
Описание:
«Мимино» — по-грузински «сокол». Так называют друзья героя фильма, летчика Валико Мизандари, по воле режиссера то и дело попадающего в смешные, грустные, а порой драматические ситуации.
Работая в родном горном селении, Мимино перевозит на вертолете почту, фрукты, овец. Но он давно мечтает о настоящей, большой авиации. Наконец, ему удается воплотить свою мечту в жизнь…






Исходник: HDTVRip 1080i
Качество: HDTVRip
Формат: AVI
Видео: 640x480 (4:3), 25 fps, XviD ~ 1006 kbps avg, 0.131 bit/pixel
Аудио: 48 kHz, MP3, 2.0 ch, 128.00 kbps
Раздача от:
Общее
Полное имя : Mimino.1977.HDTVRip-745_[New-team]_by_AVP_Studio.avi
Формат : AVI
Формат/Информация : Audio Video Interleave
Размер файла : 746 Мбайт
Продолжительность : 1 ч. 31 м.
Общий поток : 1143 Кбит/сек
Программа кодирования : VirtualDubMod 1.5.10.3 | www.virtualdub-fr.org || (build 2550/release)
Библиотека кодирования : VirtualDubMod build 2550/release
Видео
Идентификатор : 0
Формат : MPEG-4 Visual
Профиль формата : Advanced Simple@L5
Параметр BVOP формата : 1
Параметр QPel формата : Нет
Параметр GMC формата : Без точки перехода
Параметр матрицы формата : Выборочная
Идентификатор кодека : XVID
Идентификатор кодека/Подсказка : XviD
Продолжительность : 1 ч. 31 м.
Битрейт : 1006 Кбит/сек
Ширина : 640 пикселей
Высота : 480 пикселей
Соотношение сторон : 4:3
Частота кадров : 25,000 кадров/сек
Цветовое пространство : YUV
Субдискретизация насыщенности : 4:2:0
Битовая глубина : 8 бит
Тип развёртки : Прогрессивная
Метод сжатия : С потерями
Бит/(Пиксели*Кадры) : 0.131
Размер потока : 656 Мбайт (88%)
Библиотека кодирования : XviD 1.2.1 (UTC 2008-12-04)
Аудио
Идентификатор : 1
Формат : MPEG Audio
Версия формата : Version 1
Профиль формата : Layer 3
Идентификатор кодека : 55
Идентификатор кодека/Подсказка : MP3
Продолжительность : 1 ч. 31 м.
Вид битрейта : Постоянный
Битрейт : 128 Кбит/сек
Каналы : 2 канала
Частота : 48,0 КГц
Метод сжатия : С потерями
Размер потока : 83,5 Мбайт (11%)
Выравнивание : Соединение по промежуткам
Продолжительность промежутка : 40 мс. (1,00 видеокадр)
Время предзагрузки промежутка : 504 мс.
Библиотека кодирования : LAME3.99r
Настройки программы : -m s -V 4 -q 2 -lowpass 17 -b 128





   Похожие торренты   Торрент   Размер 
В этой теме нет новых непрочитанных сообщений. Мимино (1977) HDTVRip от New-Team

32 | 4

1.46 ГБ

В этой теме нет новых непрочитанных сообщений. Мимино (1977) HDTVRip-AVC от New-Team

30 | 5

1.46 ГБ

В этой теме нет новых непрочитанных сообщений. Мимино (1977) HDTVRip 720p от New-Team

73 | 7

2.18 ГБ

В этой теме нет новых непрочитанных сообщений. Мимино (1977) HDTVRip от GeneralFilm

90 | 11

702.08 МБ

В этой теме нет новых непрочитанных сообщений. Мимино (1977) HDTVRip 720p

739 | 52

2.88 ГБ

В этой теме нет новых непрочитанных сообщений. Мимино (1977) WEB-DLRip

41 | 3

1.37 ГБ

В этой теме нет новых непрочитанных сообщений. Мимино (1977) DVDRip

804 | 26

1.46 ГБ




Вы не можете начинать темы
Вы не можете отвечать на сообщения
Вы не можете редактировать свои сообщения
Вы не можете удалять свои сообщения
Вы не можете добавлять вложения

Перейти:  
Для Мосгорсуда, Роскомнадзора и рекламодателей: mosgorsud-torrent[собачка]yandex.ru
 Вход
ppkBB3cker v.2 © 2008-2014 @ PPK
[ Time : 0.670s | 16 Queries | GZIP : Off ]

Торрент трекер RUTOR.IN, Не можете зайти на rutor.org? Какой новый адрес рутор? Какое зеркало рутор? Не работает rutor.org и зеркала? Тогда наш торрент специально для вас. Rutor.in неофициальное зеркало rutor. В случае если у Вас заблокирован rutor или вдруг Вы не можете на него зайти, то Вы без труда сможете скачать бесплатно и без рекламы последние новинки кино, игр, сериалов и прочего у нас, на Rutor.in. Не нужно использовать прокси, чтобы зайти на рутор, достаточно воспользоваться нашим ресурсом. Все новые фильмы, игры, сериалы, книги и музыка за 2013 и 2014 годы через торрент бесплатно. Скачивайте фильмы в хорошем качестве, игры для пк, xbox, playstation без регистрации. У нас вы найдете новые Зарубежные сериалы и Русские сериалы 2013, 2014, 2015 годов. Оставайтесь с нами, качайте любимые фильмы, игры, сериалы, книги и музыку.
cron