img image001 image001 image001 image001 image001 image001 image001 image001 image001 image001 image001 image001 image001 image001 image001

Planets Sun Sun Sun
Статистика раздачи
Автор: Nickolas3434 | Размер: 2.19 ГБ | Добавлен: 30 ноя 2016
Раздают: 82    Качают: 3
Скачать торрент
Скачать торрент
Описание торрента

СообщениеДобавлено: 30 ноя 2016 


Информация о фильме
Название: 12 стульев
Год выхода: 1971
Жанр: Комедия
Режиссер: Леонид Гайдай
В ролях: Арчил Гомиашвили, Сергей Филиппов, Михаил Пуговкин, Наталья Крачковская, Наталья Воробьёва, Гликерия Богданова-Чеснокова, Нина Гребешкова, Юрий Никулин, Наталья Варлей, Клара Румянова, Леонид Гайдай, Игорь Ясулович, Георгий Вицин, Савелий Крамаров, Виктор Павлов, Готлиб Ронинсон, Владимир Этуш, Нина Агапова, Руслан Ахметов, Эдуард Бредун, Роман Филиппов, Эраст Гарин, Юрий Медведев, Рина Зелёная, Валерий Золотухин, Александр Денисов (II)
О фильме:
Во время революции и последовавшего за ней краткого периода военного коммунизма многие прятали свои ценности как можно надежнее. И вот Ипполит Матвеевич Воробьянинов, бывший Старгородский предводитель дворянства и светский лев, а ныне — скромный делопроизводитель ЗАГСа, узнает от умирающей тещи, что некогда она спрятала свои бриллианты и жемчуга в общей сложности на 150 000 золотых рублей под обивку одного из двенадцати стульев гостиного гарнитура работы известного мастера Гамбса. Бросив все, Воробьянинов бросается на поиски стульев, в чем ему, конечно же, небескорыстно, берется помочь молодой авантюрист, «великий комбинатор» Остап Бендер. Найти следы разрозненного гарнитура непросто. Не облегчает положения и то, что перед смертью теща Воробьянинова открыла тайну сокровищ и своему исповеднику, отцу Федору, всю жизнь мечтавшему о собственном свечном заводике в Самаре. По одноимённому роману Ильи Ильфа и Евгения Петрова.

Страна: СССР
Студия: Мосфильм
Продолжительность: 02:32:34
Перевод: Не требуется
Файл
Качество: WEB-DLRip
Формат: AVI
Кодек: XviD
Видео: 720x400 (16:9), 25 fps, XviD ~1847 kbps avg, 0.257 bit/pixel
Аудио: АС3, 48 kHz, 2 ch, ~192.00 kbps avg | русский |
Субтитры: Отсутствуют
Семпл
Общее
Полное имя : 12.stulev.1971.WEB-DLRip.avi
Формат : AVI
Формат/Информация : Audio Video Interleave
Профиль формата : OpenDML
Размер файла : 2,19 Гбайт
Продолжительность : 2 ч. 32 м.
Общий поток : 2051 Кбит/сек
Программа кодирования : VirtualDubMod 1.5.10.3 (build 2550/release)
Библиотека кодирования : VirtualDubMod build 2550/release
Видео
Идентификатор : 0
Формат : MPEG-4 Visual
Профиль формата : Advanced Simple@L5
Параметр BVOP формата : 2
Параметр QPel формата : Нет
Параметр GMC формата : Без точки перехода
Параметр матрицы формата : Выборочная
Идентификатор кодека : XVID
Идентификатор кодека/Подсказка : XviD
Продолжительность : 2 ч. 32 м.
Битрейт : 1847 Кбит/сек
Ширина : 720 пикселей
Высота : 400 пикселей
Соотношение сторон : 16:9
Частота кадров : 25,000 кадров/сек
Цветовое пространство : YUV
Субдискретизация насыщенности : 4:2:0
Битовая глубина : 8 бит
Тип развёртки : Прогрессивная
Метод сжатия : С потерями
Бит/(Пиксели*Кадры) : 0.257
Размер потока : 1,97 Гбайт (90%)
Библиотека кодирования : XviD 73
Аудио
Идентификатор : 1
Формат : AC-3
Формат/Информация : Audio Coding 3
Расширение режима : CM (complete main)
Параметр Endianness формата : Big
Идентификатор кодека : 2000
Продолжительность : 2 ч. 32 м.
Вид битрейта : Постоянный
Битрейт : 192 Кбит/сек
Каналы : 2 канала
Расположение каналов : Front: L R
Частота : 48,0 КГц
Метод сжатия : С потерями
Размер потока : 210 Мбайт (9%)
Выравнивание : Разделение по промежуткам
Продолжительность промежутка : 40 мс. (1,00 видеокадр)
Время предзагрузки промежутка : 500 мс.





   Похожие торренты   Торрент   Размер 
В этой теме нет новых непрочитанных сообщений. 12 стульев (1971) DVDRip от MediaClub | КПК

247 | 32

690.46 МБ

В этой теме нет новых непрочитанных сообщений. 12 стульев (1971) DVDRip-AVC от ExKinoRay

917 | 62

3.7 ГБ

В этой теме нет новых непрочитанных сообщений. 12 стульев (1971) 2хDVD5 | Реставрация

402 | 21

7.83 ГБ

В этой теме нет новых непрочитанных сообщений. 12 стульев (1971) DVDRip-AVC от Youtracker

268 | 20

2.19 ГБ

В этой теме нет новых непрочитанных сообщений. 12 стульев (1971) DVDRip от Youtracker

344 | 19

1.45 ГБ

В этой теме нет новых непрочитанных сообщений. 12 стульев (1971) DVDRip от Youtracker

202 | 19

2.82 ГБ

В этой теме нет новых непрочитанных сообщений. 12 Стульев (2003) PC | RePack от R.G. UPG

70 | 5

848.86 МБ




Вы не можете начинать темы
Вы не можете отвечать на сообщения
Вы не можете редактировать свои сообщения
Вы не можете удалять свои сообщения
Вы не можете добавлять вложения

Перейти:  
Для Мосгорсуда, Роскомнадзора и рекламодателей: mosgorsud-torrent[собачка]yandex.ru
 Вход
ppkBB3cker v.2 © 2008-2014 @ PPK
[ Time : 0.022s | 14 Queries | GZIP : Off ]

Торрент трекер RUTOR.IN, Не можете зайти на rutor.org? Какой новый адрес рутор? Какое зеркало рутор? Не работает rutor.org и зеркала? Тогда наш торрент специально для вас. Rutor.in неофициальное зеркало rutor. В случае если у Вас заблокирован rutor или вдруг Вы не можете на него зайти, то Вы без труда сможете скачать бесплатно и без рекламы последние новинки кино, игр, сериалов и прочего у нас, на Rutor.in. Не нужно использовать прокси, чтобы зайти на рутор, достаточно воспользоваться нашим ресурсом. Все новые фильмы, игры, сериалы, книги и музыка за 2013 и 2014 годы через торрент бесплатно. Скачивайте фильмы в хорошем качестве, игры для пк, xbox, playstation без регистрации. У нас вы найдете новые Зарубежные сериалы и Русские сериалы 2013, 2014, 2015 годов. Оставайтесь с нами, качайте любимые фильмы, игры, сериалы, книги и музыку.