img image001 image001 image001 image001 image001 image001 image001 image001 image001 image001 image001 image001 image001 image001 image001

Planets Sun Sun Sun
Статистика раздачи
Автор: Nickolas3434 | Размер: 746.28 МБ | Добавлен: 30 ноя 2016
Раздают: 163    Качают: 19
Скачать торрент
Скачать торрент
Описание торрента

СообщениеДобавлено: 30 ноя 2016 


Информация о фильме
Оригинальное название: Последний лепесток
Год выпуска: 2016
Жанр: Мелодрама
Режиссер: Валерий Девятилов
В ролях: Бибигуль Суюншалина, Артём Осипов, Наталия Житкова, Светлана Милованова, Леонид Громов, Эдуард Айткулов, Владислав Погиба, Наталья Третьякова (III), Юлия Соловьёва, Андрей Балякин, Александра Пытлик
О фильме:
Гуля с мужем Анзуром приезжают из Таджикистана в Москву на заработки. Умелый рабочий Анзур становится бригадиром на стройке. Гуля работает поваром. Супруги полны радужных надежд: они ожидают рождения ребенка и готовятся снять уютную квартиру. Но все планы перечеркивает трагедия. В потасовке с прорабом Анзура убивают. Несчастная Гуля оказывается на улице — без денег, документов и на сносях...

Страна: Россия
Студия: Кинокомпания «Русское»
Продолжительность: 01:32:06
Перевод: Не требуется
Файл
Формат: avi
Качество: HDTVRip
Видео: XviD build 73, 688x384 (16:9), 25.000 fps, ~ 1020 Kbps (~ 0.155 bit/pixel)
Звук: 48.0 kHz, MP3, 2/0 ch, 128 kbps
Субтитры: нет
General
Complete name : Poslednij.Lepestok.2016.XviD.HDTVRip.GeneralFilm.avi
Format : AVI
Format/Info : Audio Video Interleave
File size : 746 MiB
Duration : 1h 29mn
Overall bit rate : 1 161 Kbps
Writing application : VirtualDubMod 1.5.10.3 | www.virtualdub-fr.org || (build 2550/release)
Writing library : VirtualDubMod build 2550/release
Video
ID : 0
Format : MPEG-4 Visual
Format profile : Advanced Simple@L5
Format settings, BVOP : 1
Format settings, QPel : Yes
Format settings, GMC : No warppoints
Format settings, Matrix : Custom
Codec ID : XVID
Codec ID/Hint : XviD
Duration : 1h 29mn
Bit rate : 1 023 Kbps
Width : 688 pixels
Height : 384 pixels
Display aspect ratio : 16:9
Frame rate : 25.000 fps
Color space : YUV
Chroma subsampling : 4:2:0
Bit depth : 8 bits
Scan type : Progressive
Compression mode : Lossy
Bits/(Pixel*Frame) : 0.155
Stream size : 658 MiB (88%)
Writing library : XviD 73
Audio
ID : 1
Format : MPEG Audio
Format version : Version 1
Format profile : Layer 3
Codec ID : 55
Codec ID/Hint : MP3
Duration : 1h 29mn
Bit rate mode : Constant
Bit rate : 128 Kbps
Channel(s) : 2 channels
Sampling rate : 48.0 KHz
Compression mode : Lossy
Stream size : 82.3 MiB (11%)
Alignment : Aligned on interleaves
Interleave, duration : 40 ms (1.00 video frame)
Interleave, preload duratio : 504 ms
Writing library : LAME3.99r
Encoding settings : -m s -V 4 -q 0 -lowpass 17 -b 128




Релиз от:



   Похожие торренты   Торрент   Размер 
В этой теме нет новых непрочитанных сообщений. Последний лепесток (2016) HDTVRip-AVC от Files-x

256 | 49

1.38 ГБ

В этой теме нет новых непрочитанных сообщений. Последний лепесток (2016) HDTVRip от Files-x

1796 | 309

1.37 ГБ

В этой теме нет новых непрочитанных сообщений. Последний лепесток (2016) WEBRip 720p

446 | 30

1.21 ГБ

В этой теме нет новых непрочитанных сообщений. Последний лепесток (2016) HDTV 1080i от MediaClub

267 | 25

4.03 ГБ

В этой теме нет новых непрочитанных сообщений. Лезвие и лепесток / Sword and Flower [01-20 из 20] (2013) HDTVRip | L1

20 | 24

13.39 ГБ

В этой теме нет новых непрочитанных сообщений. Багровый лепесток и белый / The Crimson Petal and the White [S01] (2011) HDTVRip | P

174 | 58

2.25 ГБ

В этой теме нет новых непрочитанных сообщений. Багровый лепесток и белый / The Crimson Petal and the White [S01] (2011) HDTVRip 720p

8 | 3

6.04 ГБ




Вы не можете начинать темы
Вы не можете отвечать на сообщения
Вы не можете редактировать свои сообщения
Вы не можете удалять свои сообщения
Вы не можете добавлять вложения

Перейти:  
Для Мосгорсуда, Роскомнадзора и рекламодателей: mosgorsud-torrent[собачка]yandex.ru
 Вход
ppkBB3cker v.2 © 2008-2014 @ PPK
[ Time : 0.013s | 13 Queries | GZIP : Off ]
CGP output time : 0.014s | 5 Queries | GZIP : Off

Торрент трекер RUTOR.IN, Не можете зайти на rutor.org? Какой новый адрес рутор? Какое зеркало рутор? Не работает rutor.org и зеркала? Тогда наш торрент специально для вас. Rutor.in неофициальное зеркало rutor. В случае если у Вас заблокирован rutor или вдруг Вы не можете на него зайти, то Вы без труда сможете скачать бесплатно и без рекламы последние новинки кино, игр, сериалов и прочего у нас, на Rutor.in. Не нужно использовать прокси, чтобы зайти на рутор, достаточно воспользоваться нашим ресурсом. Все новые фильмы, игры, сериалы, книги и музыка за 2013 и 2014 годы через торрент бесплатно. Скачивайте фильмы в хорошем качестве, игры для пк, xbox, playstation без регистрации. У нас вы найдете новые Зарубежные сериалы и Русские сериалы 2013, 2014, 2015 годов. Оставайтесь с нами, качайте любимые фильмы, игры, сериалы, книги и музыку.