img image001 image001 image001 image001 image001 image001 image001 image001 image001 image001 image001 image001 image001 image001 image001

Planets Sun Sun Sun
Статистика раздачи
Автор: Nickolas3434 | Размер: 1.46 ГБ | Добавлен: 29 ноя 2016
Раздают: 35    Качают: 0
Скачать торрент
Скачать торрент
Описание торрента

СообщениеДобавлено: 29 ноя 2016 


Информация о фильме
Название: Завтрак на траве
Год выхода: 1979
Жанр: Детский, приключения, музыкальный
Режиссёр: Николай Александрович
В ролях: Сергей Проханов, Валентина Талызина, Татьяна Лебедькова, Людмила Гравес, Максим Широков, Александр Коптев, Игорь Князев, Александр Жданов, Татьяна Самсонова, Александр Демьяненко, Геннадий Ялович, Владимир Новиков, Ирина Юревич
О фильме: Замечательный фильм про жизнь в пионерском лагере, пионерское детство и походы, о том, как рабочий Иван Ковалев, назначенный вожатым пионерского лагеря, вполне обоснованно добивается любви и уважения своих подопечных. В фильме звучат песни на музыку Владимира Шаинского: «Пожалуйста, не жалуйся», «Солдат молоденький», «Золотая рыбка», «Картошка», «Между нами, дикарями», «Жара», «Если в лагере дожди», «Если Вам…», «Город», «Ловись, ловись»...

Страна: СССР
Студия: Кинокомпания «Магнум»
Продолжительность: 02:15:15
Перевод: Не требуется (оригинальный)
Файл
Формат: avi
Качество: DVDRip (DVD5)
Видео: XviD, 704х528, 25fps, 1407kbps
Аудио: MPEG Layer 3, 2ch, 48000Hz, 128kbps

General
Complete name : Zavtrak.Na.Trave.1979.O.DVDRip.1400.CurHaJI.avi
Format : AVI
Format/Info : Audio Video Interleave
File size : 1.46 GiB
Duration : 2h 15mn
Overall bit rate : 1 545 Kbps
Movie name : Zavtrak.Na.Trave.1979.O.DVDRip.1400.CurHaJI
Writing application : VirtualDubMod 1.5.10.3 | www.virtualdub-fr.org || (build 2550/release)
Writing library : VirtualDub build 35491/release
Video
ID : 0
Format : MPEG-4 Visual
Format profile : Advanced Simple@L5
Format settings, BVOP : 2
Format settings, QPel : No
Format settings, GMC : No warppoints
Format settings, Matrix : Custom
Codec ID : XVID
Codec ID/Hint : XviD
Duration : 2h 15mn
Bit rate : 1 407 Kbps
Width : 704 pixels
Height : 528 pixels
Display aspect ratio : 4:3
Frame rate : 25.000 fps
Color space : YUV
Chroma subsampling : 4:2:0
Bit depth : 8 bits
Scan type : Progressive
Compression mode : Lossy
Bits/(Pixel*Frame) : 0.151
Stream size : 1.33 GiB (91%)
Writing library : XviD 73
Audio
ID : 1
Format : MPEG Audio
Format version : Version 1
Format profile : Layer 3
Codec ID : 55
Codec ID/Hint : MP3
Duration : 2h 15mn
Bit rate mode : Constant
Bit rate : 128 Kbps
Channel(s) : 2 channels
Sampling rate : 48.0 KHz
Compression mode : Lossy
Stream size : 124 MiB (8%)
Alignment : Aligned on interleaves
Interleave, duration : 40 ms (1.00 video frame)
Interleave, preload duration : 504 ms


Релиз от:



   Похожие торренты   Торрент   Размер 
В этой теме нет новых непрочитанных сообщений. Завтрак на траве [2 из 2] (1979) DVDRip от ExKinoRay

66 | 7

2.14 ГБ

В этой теме нет новых непрочитанных сообщений. Завтрак на траве (1979) DVDRip-AVC от ExKinoRay

170 | 13

3.25 ГБ

В этой теме нет новых непрочитанных сообщений. Лангуст на завтрак / Aragosta a colazione (1979) DVDRip | P

12 | 3

1.45 ГБ

В этой теме нет новых непрочитанных сообщений. Лангуст на завтрак / Aragosta a colazione (1979) DVD9 | P

1 | 4

5.84 ГБ

В этой теме нет новых непрочитанных сообщений. Любовь на траве / L'amour par terre (1984) DVDRip | P, sub

64 | 26

2.07 ГБ

В этой теме нет новых непрочитанных сообщений. Великолепие в траве / Splendor in the Grass (1961) DVDRip

26 | 43

2.06 ГБ

В этой теме нет новых непрочитанных сообщений. Ранние всходы / Молодо-зелено / Хлеб в траве / Le blé en herbe (1954) DVDRip

2 | 2

1.46 ГБ




Вы не можете начинать темы
Вы не можете отвечать на сообщения
Вы не можете редактировать свои сообщения
Вы не можете удалять свои сообщения
Вы не можете добавлять вложения

Перейти:  
Для Мосгорсуда, Роскомнадзора и рекламодателей: mosgorsud-torrent[собачка]yandex.ru
 Вход
ppkBB3cker v.2 © 2008-2014 @ PPK
[ Time : 0.032s | 16 Queries | GZIP : Off ]

cron