img image001 image001 image001 image001 image001 image001 image001 image001 image001 image001 image001 image001 image001 image001 image001

Planets Sun Sun Sun
Статистика раздачи
Автор: Nickolas3434 | Размер: 744.35 МБ | Добавлен: 29 ноя 2016
Раздают: 5    Качают: 0
Скачать торрент
Скачать торрент
Описание торрента

СообщениеДобавлено: 29 ноя 2016 

Страна: СССР
Производство: Мосфильм
Жанр: драма
Год выпуска: 1956
Продолжительность: 01:15:52
Перевод: Не требуется
Cубтитры: нет
Оригинальная аудиодорожка: русский
Режиссер: Леонид Гайдай, Валентин Невзоров
В ролях:
Сергей Яковлев, Кюнна Игнатова, Леонид Губанов, Владимир Белокуров, Никифор Колофидин, Александр Антонов, Георгий Бударов, Владимир Покровский, Иван Рыжов, Аполлон Ячницкий...
Полный список актёров
Описание:
По мотивам сибирских рассказов В. Г. Короленко «Ат-Даван» и «Чудная».
Станционный смотритель Кругликов был сослан в глухой сибирский посёлок много лет назад за то, что стрелял в своего начальника, генерала, потребовавшего, чтобы он поехал вместе с ним в качестве свата к любимой девушке Кругликова — Рае. На станцию привозят политическую ссыльную. Ею оказывается Рая. Несколько минут были бывшие жених и невеста рядом, а затем её снова повезли по этапу.





Источник: DVB
Качество видео: SATRip-AVC
Формат видео: MKV
Видео: 680->744x558 (4:3), 25 fps, H264 ~ 1242 kbps avg, 0.131 bit/pixel
Аудио: 48 kHz, MP3 2.0, 128 kbps
Раздача от:
Общее
Полное имя : Dolgiy.put.1956.SATRip-AVC_[New-team]_by_AVP_Studio.mkv
Формат : Matroska
Версия формата : Version 2
Размер файла : 744 Мбайт
Продолжительность : 1 ч. 15 м.
Общий поток : 1372 Кбит/сек
Дата кодирования : UTC 2016-11-25 12:07:29
Программа кодирования : mkvmerge v6.1.0 ('Old Devil') built on Mar 4 2013 09:10:42
Библиотека кодирования : libebml v1.3.0 + libmatroska v1.4.0
Видео
Идентификатор : 1
Формат : AVC
Формат/Информация : Advanced Video Codec
Профиль формата : High@L4.1
Параметр CABAC формата : Да
Параметр ReFrames формата : 10 кадров
Идентификатор кодека : V_MPEG4/ISO/AVC
Продолжительность : 1 ч. 15 м.
Битрейт : 1242 Кбит/сек
Ширина : 680 пикселей
Высота : 558 пикселей
Соотношение сторон : 4:3
Режим частоты кадров : Постоянный
Частота кадров : 25,000 кадров/сек
Цветовое пространство : YUV
Субдискретизация насыщенности : 4:2:0
Битовая глубина : 8 бит
Тип развёртки : Прогрессивная
Бит/(Пиксели*Кадры) : 0.131
Размер потока : 660 Мбайт (89%)
Библиотека кодирования : x264 core 148 r2597 e86f3a1
Настройки программы : cabac=1 / ref=10 / deblock=1:-2:-1 / analyse=0x3:0x113 / me=umh / subme=10 / psy=1 / psy_rd=1.00:0.00 / mixed_ref=1 / me_range=32 / chroma_me=1 / trellis=2 / 8x8dct=1 / cqm=0 / deadzone=21,11 / fast_pskip=1 / chroma_qp_offset=-2 / threads=6 / lookahead_threads=1 / sliced_threads=0 / nr=0 / decimate=0 / interlaced=0 / bluray_compat=0 / constrained_intra=0 / bframes=8 / b_pyramid=2 / b_adapt=2 / b_bias=0 / direct=3 / weightb=1 / open_gop=0 / weightp=2 / keyint=250 / keyint_min=25 / scenecut=40 / intra_refresh=0 / rc=2pass / mbtree=0 / bitrate=1242 / ratetol=1.0 / qcomp=0.60 / qpmin=0 / qpmax=69 / qpstep=4 / cplxblur=20.0 / qblur=0.5 / ip_ratio=1.40 / pb_ratio=1.30 / aq=1:1.00
Default : Да
Forced : Нет
Аудио
Идентификатор : 2
Формат : AC-3
Формат/Информация : Audio Coding 3
Расширение режима : CM (complete main)
Параметр Endianness формата : Big
Идентификатор кодека : A_AC3
Продолжительность : 1 ч. 15 м.
Вид битрейта : Постоянный
Битрейт : 128 Кбит/сек
Каналы : 2 канала
Расположение каналов : Front: L R
Частота : 48,0 КГц
Частота кадров : 31,250 кадров/сек (1536 spf)
Битовая глубина : 16 бит
Метод сжатия : С потерями
Размер потока : 69,5 Мбайт (9%)
Default : Да
Forced : Нет





   Похожие торренты   Торрент   Размер 
В этой теме нет новых непрочитанных сообщений. Долгий путь (1956) SATRip от New-Team

4 | 0

747.49 МБ

В этой теме нет новых непрочитанных сообщений. Долгий путь (1956) SATRip

72 | 4

1.03 ГБ

В этой теме нет новых непрочитанных сообщений. Долгий путь Билли Линна в перерыве футбольного матча / Billy Lynn's Long Halftime Walk (2016) BDRip 720p от New-Team | iTunes

89 | 2

5.92 ГБ

В этой теме нет новых непрочитанных сообщений. Долгий путь домой [01-07 из 16] (2014) IPTVRip

406 | 207

3.99 ГБ

В этой теме нет новых непрочитанных сообщений. Долгий путь домой [01-12 из 16] (2014) IPTVRip

366 | 211

6.91 ГБ

В этой теме нет новых непрочитанных сообщений. Долгий путь домой [01-09 из 16] (2014) IPTVRip

347 | 122

5.16 ГБ

В этой теме нет новых непрочитанных сообщений. Долгий путь домой [01-16 из 16] (2014) IPTVRip

2345 | 1182

9.12 ГБ




Вы не можете начинать темы
Вы не можете отвечать на сообщения
Вы не можете редактировать свои сообщения
Вы не можете удалять свои сообщения
Вы не можете добавлять вложения

Перейти:  
Для Мосгорсуда, Роскомнадзора и рекламодателей: mosgorsud-torrent[собачка]yandex.ru
 Вход
ppkBB3cker v.2 © 2008-2014 @ PPK
[ Time : 0.036s | 16 Queries | GZIP : Off ]

cron