img image001 image001 image001 image001 image001 image001 image001 image001 image001 image001 image001 image001 image001 image001 image001

Planets Sun Sun Sun
Статистика раздачи
Автор: Nickolas3434 | Размер: 7.27 ГБ | Добавлен: 01 дек 2016
Раздают: 580    Качают: 171
Скачать торрент
Скачать торрент
Описание торрента

СообщениеДобавлено: 01 дек 2016 


«Two great armies duel to the death with a million guns and ten thousand tanks... THE GREAT BATTLE»
Информация о фильме
Название: Освобождение
Год выхода: 1968-1971
Жанр: Драма, мелодрама, военный
Режиссер: Юрий Озеров
В ролях: Николай Олялин, Лариса Голубкина, Борис Зайденберг, Сергей Никоненко, Михаил Ульянов, Владлен Давыдов, Василий Шукшин, Евгений Буренков, Дмитрий Франько, Юрий Каморный, Бухути Закариадзе, Михаил Ножкин, Иван Переверзев, Владислав Стржельчик, Анатолий Ромашин, Николай Рыбников, Валерий Носик, Владимир Коренев, Эдуард Изотов, Юрий Легков, Всеволод Санаев, Владимир Самойлов, Игорь Озеров, Сергей Харченко, Николай Рушковский, Константин Забелин, Виктор Авдюшко, Владимир Заманский, Клеон Протасов, Александр Афанасьев, Алексей Глазырин, Пётр Глебов, Григорий Михайлов, Пётр Щербаков, Роман Ткачук, Сергей Ляхницкий, Валерий Карен, Виктор Байков, Николай Боголюбов, Владимир Герасимов, Михаил Глузский, Николай Ерёменко (старший), Петр Любешкин, Иван Миколайчук, Лев Прыгунов, Роман Хомятов, Волдемар Акуратерс, Алексей Алексеев, Вадим Грачёв, Юлия Диоши, Юрий Мартынов, Юрий Померанцев, Михаил Постников, Алексей Преснецов, Олев Эскола, Анатолий Кузнецов, Николай Лебедев (II), Лев Поляков, Александр Смирнов, Александр Барушной, Виктор Борцов, Елизавета Алексеева (II), Леонид Довлатов, Николай Симкин, Юрий Дуров, Виктор Шахов, Иосиф (Сосо) Гогичайшвили, В. Вахлин, Владимир Разумовский, Фриц Диц
О фильме:
Историческая киноэпопея в пяти фильмах о событиях Великой Отечественной войны, где наряду с подлинными историческими лицами действуют вымышленные герои... Всего в картине действует 51 реальный исторический персонаж. Подбор актёров на роли этих персонажей оказался непростым делом. Главная проблема заключалась в том, что практически все прототипы героев фильма были ещё живы. Большинство из них занимали высокие посты и весьма интересовались тем, как будут выглядеть на экране. Нужно было не просто добиться портретного сходства, но и получить согласие самого прототипа (или кураторов съёмочного процесса) на изображение на экране этого прототипа тем или иным актёром. Создание фильма консультировали сотни специалистов и участников тех событий.
Список фильмов
Фильм первый. "Огненная Дуга"
Повествует о грандиозной битве на Курской дуге летом 1943 г. Здесь произошло самое крупное в истории Второй мировой войны танковое сражение. Наряду с личными судьбами героев в фильме показаны батальные сцены, деятельность штабов и разведок, тех, кто трудился на фронте и в тылу.

Фильм второй. "Прорыв"
Посвящен битве за Днепр и наступательной операции советских войск в 1944 г. В центре этого фильма судьба батальона, сражавшегося на этом плацдарме.

Фильм третий. "Направление главного удара"
Посвящен операции "Багратион", в результате которой была полностью освобождена от фашистских войск Белоруссия, и войска Советской армии вышли к государственной границе...

Фильм четвертый. "Битва за Берлин"
1945 год. Последние месяцы войны. Именно в эти дни решалась судьба порабощенной Европы. Началась Висло-Одерская операция. Три фронта под командованием Конева, Жукова и Рокоссовского устремились к столице Германии. К Берлину идут и англо-американские войска. "Опередить русских", - предлагает Черчиль и начинаются тайные переговоры с эмиссарами Гитлера, разоблаченные Ялтинской конференцией. Судьба Берлина решится на полях сражений.

Фильм пятый. "Последний штурм"
Последние дни войны, штурм рейхстага, сражение за каждый метр, за каждый этаж - и, наконец, водружение Знамени Победы над рейхстагом. Раздались первые залпы Победы. Главные герои фильма встречаются у входа в рейхстаг.

Страна: СССР, Германия (ГДР), Польша, Италия
Производство: Мосфильм, Авала-фильм, Dino de Laurentiis Cinematografica (Италия), ПРФ-ЗФ (Польша), ТО «Старт», Киностудия Дефа, Zespol Filmowy
Продолжительность: 01:35:26 + 01:28:37 + 02:10:38 + 01:25:34 + 01:13:37
Перевод: Не требуется
Файл
Качество: BDRip (исх. Освобождение (1969-1971) {3-Disc Remastered Edition} Blu-ray [Custom] 1080p AVC DD2.0)
Формат: AVI
Кодек: XviD
Видео #1: 720x304 (2.35:1), 24 fps, XviD ~1874 kbps avg, 0.357 bit/pixel
Видео #2: 720x304 (2.35:1), 24 fps, XviD ~2013 kbps avg, 0.383 bit/pixel
Видео #3: 720x304 (2.35:1), 24 fps, XviD ~2047 kbps avg, 0.390 bit/pixel
Видео #4: 720x304 (2.35:1), 24 fps, XviD ~2092 kbps avg, 0.398 bit/pixel
Видео #5: 720x304 (2.35:1), 24 fps, XviD ~1919 kbps avg, 0.365 bit/pixel
Аудио: АС3, 48 kHz, 2 ch, ~192.00 kbps avg | русский |
Субтитры: Отсутствуют
Общее
Полное имя : D:TorrentsЗавершенныеOsvobozhdenie.1968-1971.XviD.BDRip_POWER1.Osvobozhdenie.Ognennaya.duga.1968.BDRip.avi
Формат : AVI
Формат/Информация : Audio Video Interleave
Размер файла : 1,38 Гбайт
Продолжительность : 1 ч. 35 м.
Общий поток : 2075 Кбит/сек
Название фильма : Освобождение. Огненная дуга (1968)
Режиссёр : *** stillet ***
Тема : Драма, мелодрама, военный
Программа кодирования : VirtualDubMod 1.5.10.3 (build 2550/release)
Библиотека кодирования : VirtualDub build 35491/release
Видео
Идентификатор : 0
Формат : MPEG-4 Visual
Профиль формата : Advanced Simple@L5
Параметр BVOP формата : 2
Параметр QPel формата : Нет
Параметр GMC формата : Без точки перехода
Параметр матрицы формата : Выборочная
Идентификатор кодека : XVID
Идентификатор кодека/Подсказка : XviD
Продолжительность : 1 ч. 35 м.
Битрейт : 1874 Кбит/сек
Ширина : 720 пикселей
Высота : 304 пикселя
Соотношение сторон : 2,35:1
Частота кадров : 24,000 кадра/сек
Цветовое пространство : YUV
Субдискретизация насыщенности : 4:2:0
Битовая глубина : 8 бит
Тип развёртки : Прогрессивная
Метод сжатия : С потерями
Бит/(Пиксели*Кадры) : 0.357
Размер потока : 1,25 Гбайт (90%)
Библиотека кодирования : XviD 73
Аудио
Идентификатор : 1
Формат : AC-3
Формат/Информация : Audio Coding 3
Расширение режима : CM (complete main)
Параметр Endianness формата : Big
Идентификатор кодека : 2000
Продолжительность : 1 ч. 35 м.
Вид битрейта : Постоянный
Битрейт : 192 Кбит/сек
Каналы : 2 канала
Расположение каналов : Front: L R
Частота : 48,0 КГц
Метод сжатия : С потерями
Размер потока : 131 Мбайт (9%)
Выравнивание : Разделение по промежуткам
Продолжительность промежутка : 42 мс. (1,00 видеокадр)
Время предзагрузки промежутка : 500 мс.
Общее
Полное имя : D:TorrentsЗавершенныеOsvobozhdenie.1968-1971.XviD.BDRip_POWER2.Osvobozhdenie.Propiv.1969.BDRip.avi
Формат : AVI
Формат/Информация : Audio Video Interleave
Размер файла : 1,37 Гбайт
Продолжительность : 1 ч. 28 м.
Общий поток : 2214 Кбит/сек
Режиссёр : *** stillet ***
Тема : Драма, военный
Программа кодирования : VirtualDubMod 1.5.10.3 (build 2550/release)
Библиотека кодирования : VirtualDub build 35491/release
Носитель оригинала : Освобождение. Прорыв (1969)
Видео
Идентификатор : 0
Формат : MPEG-4 Visual
Профиль формата : Advanced Simple@L5
Параметр BVOP формата : 2
Параметр QPel формата : Нет
Параметр GMC формата : Без точки перехода
Параметр матрицы формата : Выборочная
Идентификатор кодека : XVID
Идентификатор кодека/Подсказка : XviD
Продолжительность : 1 ч. 28 м.
Битрейт : 2013 Кбит/сек
Ширина : 720 пикселей
Высота : 304 пикселя
Соотношение сторон : 2,35:1
Частота кадров : 24,000 кадра/сек
Цветовое пространство : YUV
Субдискретизация насыщенности : 4:2:0
Битовая глубина : 8 бит
Тип развёртки : Прогрессивная
Метод сжатия : С потерями
Бит/(Пиксели*Кадры) : 0.383
Размер потока : 1,25 Гбайт (91%)
Библиотека кодирования : XviD 73
Аудио
Идентификатор : 1
Формат : AC-3
Формат/Информация : Audio Coding 3
Расширение режима : CM (complete main)
Параметр Endianness формата : Big
Идентификатор кодека : 2000
Продолжительность : 1 ч. 28 м.
Вид битрейта : Постоянный
Битрейт : 192 Кбит/сек
Каналы : 2 канала
Расположение каналов : Front: L R
Частота : 48,0 КГц
Метод сжатия : С потерями
Размер потока : 122 Мбайт (9%)
Выравнивание : Разделение по промежуткам
Продолжительность промежутка : 42 мс. (1,00 видеокадр)
Время предзагрузки промежутка : 500 мс.
Общее
Полное имя : D:TorrentsЗавершенныеOsvobozhdenie.1968-1971.XviD.BDRip_POWER\03.Osvobozhdenie.Napravlenie.glavnogo.udara.1970.BDRip.avi
Формат : AVI
Формат/Информация : Audio Video Interleave
Профиль формата : OpenDML
Размер файла : 2,05 Гбайт
Продолжительность : 2 ч. 10 м.
Общий поток : 2251 Кбит/сек
Название фильма : Освобождение. Направление главного удара (1970)
Режиссёр : *** stillet ***
Тема : Военный
Программа кодирования : VirtualDubMod 1.5.10.3 (build 2550/release)
Библиотека кодирования : VirtualDub build 35491/release
Видео
Идентификатор : 0
Формат : MPEG-4 Visual
Профиль формата : Advanced Simple@L5
Параметр BVOP формата : 2
Параметр QPel формата : Нет
Параметр GMC формата : Без точки перехода
Параметр матрицы формата : Выборочная
Идентификатор кодека : XVID
Идентификатор кодека/Подсказка : XviD
Продолжительность : 2 ч. 10 м.
Битрейт : 2047 Кбит/сек
Ширина : 720 пикселей
Высота : 304 пикселя
Соотношение сторон : 2,35:1
Частота кадров : 24,000 кадра/сек
Цветовое пространство : YUV
Субдискретизация насыщенности : 4:2:0
Битовая глубина : 8 бит
Тип развёртки : Прогрессивная
Метод сжатия : С потерями
Бит/(Пиксели*Кадры) : 0.390
Размер потока : 1,87 Гбайт (91%)
Библиотека кодирования : XviD 73
Аудио
Идентификатор : 1
Формат : AC-3
Формат/Информация : Audio Coding 3
Расширение режима : CM (complete main)
Параметр Endianness формата : Big
Идентификатор кодека : 2000
Продолжительность : 2 ч. 10 м.
Вид битрейта : Постоянный
Битрейт : 192 Кбит/сек
Каналы : 2 канала
Расположение каналов : Front: L R
Частота : 48,0 КГц
Метод сжатия : С потерями
Размер потока : 179 Мбайт (9%)
Выравнивание : Разделение по промежуткам
Продолжительность промежутка : 42 мс. (1,00 видеокадр)
Время предзагрузки промежутка : 500 мс.
Общее
Полное имя : D:TorrentsЗавершенныеOsvobozhdenie.1968-1971.XviD.BDRip_POWER\04.Osvobozhdenie.Bitva.za.Berlin.1971.BDRip.avi
Формат : AVI
Формат/Информация : Audio Video Interleave
Размер файла : 1,37 Гбайт
Продолжительность : 1 ч. 25 м.
Общий поток : 2293 Кбит/сек
Название фильма : Освобождение. Битва за Берлин (1971)
Режиссёр : *** stillet ***
Тема : Военный
Программа кодирования : VirtualDubMod 1.5.10.3 (build 2550/release)
Библиотека кодирования : VirtualDub build 35491/release
Видео
Идентификатор : 0
Формат : MPEG-4 Visual
Профиль формата : Advanced Simple@L5
Параметр BVOP формата : 2
Параметр QPel формата : Нет
Параметр GMC формата : Без точки перехода
Параметр матрицы формата : Выборочная
Идентификатор кодека : XVID
Идентификатор кодека/Подсказка : XviD
Продолжительность : 1 ч. 25 м.
Битрейт : 2092 Кбит/сек
Ширина : 720 пикселей
Высота : 304 пикселя
Соотношение сторон : 2,35:1
Частота кадров : 24,000 кадра/сек
Цветовое пространство : YUV
Субдискретизация насыщенности : 4:2:0
Битовая глубина : 8 бит
Тип развёртки : Прогрессивная
Метод сжатия : С потерями
Бит/(Пиксели*Кадры) : 0.398
Размер потока : 1,25 Гбайт (91%)
Библиотека кодирования : XviD 73
Аудио
Идентификатор : 1
Формат : AC-3
Формат/Информация : Audio Coding 3
Расширение режима : CM (complete main)
Параметр Endianness формата : Big
Идентификатор кодека : 2000
Продолжительность : 1 ч. 25 м.
Вид битрейта : Постоянный
Битрейт : 192 Кбит/сек
Каналы : 2 канала
Расположение каналов : Front: L R
Частота : 48,0 КГц
Метод сжатия : С потерями
Размер потока : 118 Мбайт (8%)
Выравнивание : Разделение по промежуткам
Продолжительность промежутка : 42 мс. (1,00 видеокадр)
Время предзагрузки промежутка : 500 мс.
Общее
Полное имя : D:TorrentsЗавершенныеOsvobozhdenie.1968-1971.XviD.BDRip_POWER\05.Osvobozhdenie.Posledniy.shturm.1971.BDRip.avi
Формат : AVI
Формат/Информация : Audio Video Interleave
Размер файла : 1,09 Гбайт
Продолжительность : 1 ч. 13 м.
Общий поток : 2120 Кбит/сек
Название фильма : Освобождение. Последний штурм (1971)
Режиссёр : *** stillet ***
Тема : Военный
Программа кодирования : VirtualDubMod 1.5.10.3 (build 2550/release)
Библиотека кодирования : VirtualDub build 35491/release
Видео
Идентификатор : 0
Формат : MPEG-4 Visual
Профиль формата : Advanced Simple@L5
Параметр BVOP формата : 2
Параметр QPel формата : Нет
Параметр GMC формата : Без точки перехода
Параметр матрицы формата : Выборочная
Идентификатор кодека : XVID
Идентификатор кодека/Подсказка : XviD
Продолжительность : 1 ч. 13 м.
Битрейт : 1919 Кбит/сек
Ширина : 720 пикселей
Высота : 304 пикселя
Соотношение сторон : 2,35:1
Частота кадров : 24,000 кадра/сек
Цветовое пространство : YUV
Субдискретизация насыщенности : 4:2:0
Битовая глубина : 8 бит
Тип развёртки : Прогрессивная
Метод сжатия : С потерями
Бит/(Пиксели*Кадры) : 0.365
Размер потока : 1011 Мбайт (91%)
Библиотека кодирования : XviD 73
Аудио
Идентификатор : 1
Формат : AC-3
Формат/Информация : Audio Coding 3
Расширение режима : CM (complete main)
Параметр Endianness формата : Big
Идентификатор кодека : 2000
Продолжительность : 1 ч. 13 м.
Вид битрейта : Постоянный
Битрейт : 192 Кбит/сек
Каналы : 2 канала
Расположение каналов : Front: L R
Частота : 48,0 КГц
Метод сжатия : С потерями
Размер потока : 101 Мбайт (9%)
Выравнивание : Разделение по промежуткам
Продолжительность промежутка : 42 мс. (1,00 видеокадр)
Время предзагрузки промежутка : 500 мс.



   Похожие торренты   Торрент   Размер 
В этой теме нет новых непрочитанных сообщений. Освобождение [01-02 из 05] (1968-1971) BDRip

24 | 3

2.75 ГБ

В этой теме нет новых непрочитанных сообщений. Освобождение [01 из 05] (1968-1971) BDRip

7 | 5

1.38 ГБ

В этой теме нет новых непрочитанных сообщений. Освобождение [01-05 из 05] (1968-1971) BDRip 1080p

82 | 161

49.4 ГБ

В этой теме нет новых непрочитанных сообщений. Освобождение [01-05 из 05] (1968-1971) DVDRip - AVC

425 | 84

7.19 ГБ

В этой теме нет новых непрочитанных сообщений. Освобождение [01-05 из 05] (1968-1971) DVDRip

144 | 17

4.1 ГБ

В этой теме нет новых непрочитанных сообщений. Освобождение [01-05 из 05] (1968-1971) Blu ray 1080p | Custom

102 | 93

98.26 ГБ

В этой теме нет новых непрочитанных сообщений. Освобождение [01-05 из 05] (1968-1971) DVDRip-AVC от ExKinoRay

338 | 59

7.92 ГБ




Вы не можете начинать темы
Вы не можете отвечать на сообщения
Вы не можете редактировать свои сообщения
Вы не можете удалять свои сообщения
Вы не можете добавлять вложения

Перейти:  
Для Мосгорсуда, Роскомнадзора и рекламодателей: mosgorsud-torrent[собачка]yandex.ru
 Вход
ppkBB3cker v.2 © 2008-2014 @ PPK
[ Time : 0.020s | 15 Queries | GZIP : Off ]

Торрент трекер RUTOR.IN, Не можете зайти на rutor.org? Какой новый адрес рутор? Какое зеркало рутор? Не работает rutor.org и зеркала? Тогда наш торрент специально для вас. Rutor.in неофициальное зеркало rutor. В случае если у Вас заблокирован rutor или вдруг Вы не можете на него зайти, то Вы без труда сможете скачать бесплатно и без рекламы последние новинки кино, игр, сериалов и прочего у нас, на Rutor.in. Не нужно использовать прокси, чтобы зайти на рутор, достаточно воспользоваться нашим ресурсом. Все новые фильмы, игры, сериалы, книги и музыка за 2013 и 2014 годы через торрент бесплатно. Скачивайте фильмы в хорошем качестве, игры для пк, xbox, playstation без регистрации. У нас вы найдете новые Зарубежные сериалы и Русские сериалы 2013, 2014, 2015 годов. Оставайтесь с нами, качайте любимые фильмы, игры, сериалы, книги и музыку.