img image001 image001 image001 image001 image001 image001 image001 image001 image001 image001 image001 image001 image001 image001 image001

Planets Sun Sun Sun
Статистика раздачи
Автор: PriZraK | Размер: 49.4 ГБ | Добавлен: 02 дек 2016
Раздают: 66    Качают: 123
Скачать торрент
Скачать торрент
Описание торрента

СообщениеДобавлено: 02 дек 2016 


Информация о фильме
Название: Освобождение
Год выхода: 1968-1971
Жанр: драма, мелодрама, военный
Режиссер: Юрий Озеров
В ролях: Бухути Закариадзе, Михаил Ульянов, Николай Олялин, Лариса Голубкина, Фриц Диц, Ангелика Валлер, Петер Штурм, Юрий Каморный, Владлен Давыдов, Виктор Авдюшко, Георгий Бурков, Борис Зайденберг, Василий Шукшин, Николай Рыбников
О фильме:
Историческая киноэпопея в пяти фильмах о событиях Великой Отечественной войны, где наряду с подлинными историческими лицами действуют вымышленные герои... Всего в картине действует 51 реальный исторический персонаж. Подбор актёров на роли этих персонажей оказался непростым делом. Главная проблема заключалась в том, что практически все прототипы героев фильма были ещё живы. Большинство из них занимали высокие посты и весьма интересовались тем, как будут выглядеть на экране. Нужно было не просто добиться портретного сходства, но и получить согласие самого прототипа (или кураторов съёмочного процесса) на изображение на экране этого прототипа тем или иным актёром. Создание фильма консультировали сотни специалистов и участников тех событий.
Список фильмов
Фильм первый. "Огненная Дуга"
Повествует о грандиозной битве на Курской дуге летом 1943 г. Здесь произошло самое крупное в истории Второй мировой войны танковое сражение. Наряду с личными судьбами героев в фильме показаны батальные сцены, деятельность штабов и разведок, тех, кто трудился на фронте и в тылу.

Фильм второй. "Прорыв"
Посвящен битве за Днепр и наступательной операции советских войск в 1944 г. В центре этого фильма судьба батальона, сражавшегося на этом плацдарме.

Фильм третий. "Направление главного удара"
Посвящен операции "Багратион", в результате которой была полностью освобождена от фашистских войск Белоруссия, и войска Советской армии вышли к государственной границе...

Фильм четвертый. "Битва за Берлин"
1945 год. Последние месяцы войны. Именно в эти дни решалась судьба порабощенной Европы. Началась Висло-Одерская операция. Три фронта под командованием Конева, Жукова и Рокоссовского устремились к столице Германии. К Берлину идут и англо-американские войска. "Опередить русских", - предлагает Черчиль и начинаются тайные переговоры с эмиссарами Гитлера, разоблаченные Ялтинской конференцией. Судьба Берлина решится на полях сражений.

Фильм пятый. "Последний штурм"
Последние дни войны, штурм рейхстага, сражение за каждый метр, за каждый этаж - и, наконец, водружение Знамени Победы над рейхстагом. Раздались первые залпы Победы. Главные герои фильма встречаются у входа в рейхстаг.

Страна: СССР, Германия (ГДР), Польша, Италия
Производство: Мосфильм, Авала-фильм, Dino de Laurentiis Cinematografica (Италия), ПРФ-ЗФ (Польша), ТО «Старт», Киностудия Дефа, Zespol Filmowy
Продолжительность: 01:35:26 + 01:28:37 + 02:10:38 + 01:25:34 + 01:13:37
Перевод: Оригинальный
Файл
Формат: Matroska
Качество: BDRip 1080p
Видео: 1920x816 at 24.000 fps, x264@L4.1, ~14800 kbps avg
Аудио: Russian: 48 kHz, AC3, 2/0 (L,R) ch, ~224 kbps avg
Субтитры: Отсутствуют
Общее
Уникальный идентификатор : 224472978144789929981437901022401923151 (0xA8DFEC4BCA91BA62B015222270E0084F)
Полное имя : 3. Направление главного удара.mkv
Формат : Matroska
Версия формата : Version 1
Размер файла : 13,7 Гбайт
Продолжительность : 2 ч. 10 м.
Общий поток : 15,0 Мбит/сек
Дата кодирования : UTC 2016-11-30 04:26:36
Программа кодирования : mkvmerge v2.4.1 ('Use Me') built on Dec 5 2008 18:30:05
Библиотека кодирования : libebml v0.7.7 + libmatroska v0.8.1
Видео
Идентификатор : 1
Формат : AVC
Формат/Информация : Advanced Video Codec
Профиль формата : High@L4.1
Параметр CABAC формата : Да
Параметр ReFrames формата : 5 кадров
Идентификатор кодека : V_MPEG4/ISO/AVC
Продолжительность : 2 ч. 10 м.
Битрейт : 14,8 Мбит/сек
Ширина : 1920 пикселей
Высота : 816 пикселей
Соотношение сторон : 2,35:1
Режим частоты кадров : Постоянный
Частота кадров : 24,000 кадра/сек
Цветовое пространство : YUV
Субдискретизация насыщенности : 4:2:0
Битовая глубина : 8 бит
Тип развёртки : Прогрессивная
Бит/(Пиксели*Кадры) : 0.394
Размер потока : 13,2 Гбайт (97%)
Заголовок : Освобождение: Направление главного удара (1970)
Библиотека кодирования : x264 core 148 r2638 7599210
Настройки программы : cabac=1 / ref=5 / deblock=1:-3:-3 / analyse=0x3:0x133 / me=umh / subme=10 / psy=1 / psy_rd=1.00:0.10 / mixed_ref=1 / me_range=48 / chroma_me=1 / trellis=2 / 8x8dct=1 / cqm=0 / deadzone=21,11 / fast_pskip=0 / chroma_qp_offset=-3 / threads=6 / lookahead_threads=1 / sliced_threads=0 / nr=0 / decimate=1 / interlaced=0 / bluray_compat=0 / constrained_intra=0 / bframes=7 / b_pyramid=2 / b_adapt=2 / b_bias=0 / direct=3 / weightb=1 / open_gop=0 / weightp=2 / keyint=240 / keyint_min=22 / scenecut=40 / intra_refresh=0 / rc_lookahead=40 / rc=2pass / mbtree=1 / bitrate=14800 / ratetol=1.0 / qcomp=0.60 / qpmin=10 / qpmax=51 / qpstep=4 / cplxblur=20.0 / qblur=0.5 / ip_ratio=1.40 / aq=1:1.00
Язык : Russian
Default : Да
Forced : Нет
Аудио
Идентификатор : 2
Формат : AC-3
Формат/Информация : Audio Coding 3
Расширение режима : CM (complete main)
Параметр Endianness формата : Big
Идентификатор кодека : A_AC3
Продолжительность : 2 ч. 10 м.
Вид битрейта : Постоянный
Битрейт : 224 Кбит/сек
Каналы : 2 канала
Расположение каналов : Front: L R
Частота : 48,0 КГц
Битовая глубина : 16 бит
Метод сжатия : С потерями
Размер потока : 209 Мбайт (1%)
Заголовок : AC3 (Оригинал)
Язык : Russian
Default : Да
Forced : Нет




   Похожие торренты   Торрент   Размер 
В этой теме нет новых непрочитанных сообщений. Освобождение [01-05 из 05] (1968-1971) Blu ray 1080p | Custom

88 | 85

98.26 ГБ

В этой теме нет новых непрочитанных сообщений. Освобождение [01-05 из 05] (1968-1971) BDRip

470 | 143

7.27 ГБ

В этой теме нет новых непрочитанных сообщений. Освобождение [01 из 05] (1968-1971) BDRip

7 | 5

1.38 ГБ

В этой теме нет новых непрочитанных сообщений. Освобождение [01-02 из 05] (1968-1971) BDRip

24 | 3

2.75 ГБ

В этой теме нет новых непрочитанных сообщений. Освобождение [01-05 из 05] (1968-1971) DVDRip - AVC

425 | 84

7.19 ГБ

В этой теме нет новых непрочитанных сообщений. Освобождение [01-05 из 05] (1968-1971) DVDRip

144 | 17

4.1 ГБ

В этой теме нет новых непрочитанных сообщений. Освобождение [01-05 из 05] (1968-1971) DVDRip-AVC от ExKinoRay

230 | 51

7.92 ГБ




Вы не можете начинать темы
Вы не можете отвечать на сообщения
Вы не можете редактировать свои сообщения
Вы не можете удалять свои сообщения
Вы не можете добавлять вложения

Перейти:  
Для Мосгорсуда, Роскомнадзора и рекламодателей: mosgorsud-torrent[собачка]yandex.ru
 Вход
ppkBB3cker v.2 © 2008-2014 @ PPK
[ Time : 0.055s | 13 Queries | GZIP : Off ]
CGP output time : 0.022s | 5 Queries | GZIP : Off

Торрент трекер RUTOR.IN, Не можете зайти на rutor.org? Какой новый адрес рутор? Какое зеркало рутор? Не работает rutor.org и зеркала? Тогда наш торрент специально для вас. Rutor.in неофициальное зеркало rutor. В случае если у Вас заблокирован rutor или вдруг Вы не можете на него зайти, то Вы без труда сможете скачать бесплатно и без рекламы последние новинки кино, игр, сериалов и прочего у нас, на Rutor.in. Не нужно использовать прокси, чтобы зайти на рутор, достаточно воспользоваться нашим ресурсом. Все новые фильмы, игры, сериалы, книги и музыка за 2013 и 2014 годы через торрент бесплатно. Скачивайте фильмы в хорошем качестве, игры для пк, xbox, playstation без регистрации. У нас вы найдете новые Зарубежные сериалы и Русские сериалы 2013, 2014, 2015 годов. Оставайтесь с нами, качайте любимые фильмы, игры, сериалы, книги и музыку.