img image001 image001 image001 image001 image001 image001 image001 image001 image001 image001 image001 image001 image001 image001 image001

Planets Sun Sun Sun
Статистика раздачи
Автор: PriZraK | Размер: 1.09 ГБ | Добавлен: 02 дек 2016
Раздают: 28    Качают: 15
Скачать торрент
Скачать торрент
Описание торрента

СообщениеДобавлено: 02 дек 2016 

Страна: СССР
Производство: К/ст им. Довженко
Жанр: драма
Год выпуска: 1956
Продолжительность: 01:18:26
Перевод: Не требуется
Cубтитры: нет
Оригинальная аудиодорожка: русский
Режиссер: Николай Красий
В ролях:
Анатолий Вербицкий, Нелли Подгорная, Николай Пишванов, Павел Усовниченко, Фёдор Радчук, Стефания Пиль, Николай Блащук, Леонид Жуковский, Л. Журавлева, Георгий Фарманянц...
Полный список актёров
Описание:
Киноповесть.
О молодых геологах, ведущих разведку нефтяных месторождений.
Василий Рубан, окончивший геологический факультет, отправляется на работу в Закарпатье. Длительные поиски нефти в Карпатских горах не дают результата. Пожилой инженер уверяет Василия, что нефти здесь нет, но молодой геолог не сдается...





Источник: DVB
Качество видео: SATRip-AVC
Формат видео: MKV
Видео: 704->760x570 (4:3), 25 fps, H264 ~ 1790 kbps avg, 0.178 bit/pixel
Аудио: 48 kHz, Dolby Digital AC3 2.0, 192 kbps
Раздача от:
Общее
Полное имя : Dolina.Sinih.skal.1956.SATRip-AVC_[New-team]_by_AVP_Studio.mkv
Формат : Matroska
Версия формата : Version 4 / Version 2
Размер файла : 1,09 Гбайт
Продолжительность : 1 ч. 18 м.
Общий поток : 1984 Кбит/сек
Дата кодирования : UTC 2016-12-01 09:09:06
Программа кодирования : mkvmerge v9.5.0 ('Quiet Fire') 64bit
Библиотека кодирования : libebml v1.3.4 + libmatroska v1.4.5
Видео
Идентификатор : 1
Формат : AVC
Формат/Информация : Advanced Video Codec
Профиль формата : High@L4.1
Параметр CABAC формата : Да
Параметр ReFrames формата : 10 кадров
Идентификатор кодека : V_MPEG4/ISO/AVC
Продолжительность : 1 ч. 18 м.
Битрейт : 1790 Кбит/сек
Ширина : 704 пикселя
Высота : 570 пикселей
Соотношение сторон : 4:3
Режим частоты кадров : Постоянный
Частота кадров : 25,000 кадров/сек
Цветовое пространство : YUV
Субдискретизация насыщенности : 4:2:0
Битовая глубина : 8 бит
Тип развёртки : Прогрессивная
Бит/(Пиксели*Кадры) : 0.178
Размер потока : 1005 Мбайт (90%)
Default : Да
Forced : Нет
Аудио
Идентификатор : 2
Формат : AC-3
Формат/Информация : Audio Coding 3
Расширение режима : CM (complete main)
Параметр Endianness формата : Big
Идентификатор кодека : A_AC3
Продолжительность : 1 ч. 18 м.
Вид битрейта : Постоянный
Битрейт : 192 Кбит/сек
Каналы : 2 канала
Расположение каналов : Front: L R
Частота : 48,0 КГц
Частота кадров : 31,250 кадров/сек (1536 spf)
Битовая глубина : 16 бит
Метод сжатия : С потерями
Задержка видео : 16 мс.
Размер потока : 108 Мбайт (10%)
Default : Да
Forced : Нет





   Похожие торренты   Торрент   Размер 
В этой теме нет новых непрочитанных сообщений. Долина синих скал (1956) SATRip от New-Team

20 | 4

1.09 ГБ

В этой теме нет новых непрочитанных сообщений. Долина синих скал (1956) SATRip от New-Team

21 | 14

745.41 МБ

В этой теме нет новых непрочитанных сообщений. ...Три синих-синих озера малинового цвета... (1981) DVDRip

31 | 1

116.88 МБ

В этой теме нет новых непрочитанных сообщений. Не та, так эта (1956) SATRip от New-Team

4 | 2

1.09 ГБ

В этой теме нет новых непрочитанных сообщений. Не та, так эта (1956) SATRip-AVC от New-Team

9 | 2

1.09 ГБ

В этой теме нет новых непрочитанных сообщений. Наш двор (1956) SATRip от New-Team

23 | 6

1.09 ГБ

В этой теме нет новых непрочитанных сообщений. Наш двор (1956) SATRip-AVC от New-Team

13 | 2

1.09 ГБ




Вы не можете начинать темы
Вы не можете отвечать на сообщения
Вы не можете редактировать свои сообщения
Вы не можете удалять свои сообщения
Вы не можете добавлять вложения

Перейти:  
Для Мосгорсуда, Роскомнадзора и рекламодателей: mosgorsud-torrent[собачка]yandex.ru
 Вход
ppkBB3cker v.2 © 2008-2014 @ PPK
[ Time : 0.819s | 16 Queries | GZIP : Off ]

Торрент трекер RUTOR.IN, Не можете зайти на rutor.org? Какой новый адрес рутор? Какое зеркало рутор? Не работает rutor.org и зеркала? Тогда наш торрент специально для вас. Rutor.in неофициальное зеркало rutor. В случае если у Вас заблокирован rutor или вдруг Вы не можете на него зайти, то Вы без труда сможете скачать бесплатно и без рекламы последние новинки кино, игр, сериалов и прочего у нас, на Rutor.in. Не нужно использовать прокси, чтобы зайти на рутор, достаточно воспользоваться нашим ресурсом. Все новые фильмы, игры, сериалы, книги и музыка за 2013 и 2014 годы через торрент бесплатно. Скачивайте фильмы в хорошем качестве, игры для пк, xbox, playstation без регистрации. У нас вы найдете новые Зарубежные сериалы и Русские сериалы 2013, 2014, 2015 годов. Оставайтесь с нами, качайте любимые фильмы, игры, сериалы, книги и музыку.
cron