img image001 image001 image001 image001 image001 image001 image001 image001 image001 image001 image001 image001 image001 image001 image001 image001

Planets Sun Sun Sun
Статистика раздачи
Автор: PriZraK | Размер: 745.21 МБ | Добавлен: 03 дек 2016
Раздают: 0    Качают: 0
Скачать торрент
Скачать торрент
Описание торрента

СообщениеДобавлено: 03 дек 2016 

Страна: СССР
Производство: Мосфильм
Жанр: короткометражка, драма
Год выпуска: 1956
Продолжительность: 00:43:33
Перевод: Не требуется
Cубтитры: нет
Оригинальная аудиодорожка: русский
Режиссер: Константин Воинов
В ролях:
Лидия Смирнова, Мария Пастухова, Евгений Буренков, Пётр Савин, Светлана Харитонова, Любовь Соколова, Лидия Виноградова...
Полный список актёров
Описание:
По рассказу Павла Нилина "Жучка".
О жизни двух сестер. Двадцать лет назад Настя Самокурова уехала из села в город счастье искать. Жила в городе легкой, привольной жизнью, занимаясь спекуляцией. И вот теперь приехала этакой «столичной штучкой» погостить к своей сестре Даше, которая продолжала жить в колхозе и пользовалась всеобщим уважением.
Фильм снят по заказу Центральной студии телевидения.





Источник: DVB
Качество видео: SATRip
Формат видео: AVI
Видео: 704x528 (4:3), 25 fps, XviD ~ 2190 kbps avg, 0.236 bit/pixel
Аудио: 48 kHz, Dolby Digital AC3 2.0, 192 kbps
Раздача от:
Общее
Полное имя : Dve.zhizni.1956.SATRip_[New-team]_by_AVP_Studio.avi
Формат : AVI
Формат/Информация : Audio Video Interleave
Размер файла : 745 Мбайт
Продолжительность : 43 м. 33 с.
Общий поток : 2392 Кбит/сек
Программа кодирования : VirtualDubMod 1.5.10.3 | www.virtualdub-fr.org || (build 2550/release)
Библиотека кодирования : VirtualDubMod build 2550/release
Видео
Идентификатор : 0
Формат : MPEG-4 Visual
Профиль формата : Advanced Simple@L5
Параметр BVOP формата : 1
Параметр QPel формата : Нет
Параметр GMC формата : Без точки перехода
Параметр матрицы формата : Выборочная
Идентификатор кодека : XVID
Идентификатор кодека/Подсказка : XviD
Продолжительность : 43 м. 33 с.
Битрейт : 2190 Кбит/сек
Ширина : 704 пикселя
Высота : 528 пикселей
Соотношение сторон : 4:3
Частота кадров : 25,000 кадров/сек
Цветовое пространство : YUV
Субдискретизация насыщенности : 4:2:0
Битовая глубина : 8 бит
Тип развёртки : Прогрессивная
Метод сжатия : С потерями
Бит/(Пиксели*Кадры) : 0.236
Размер потока : 682 Мбайт (92%)
Библиотека кодирования : XviD 1.2.1 (UTC 2008-12-04)
Аудио
Идентификатор : 1
Формат : AC-3
Формат/Информация : Audio Coding 3
Расширение режима : CM (complete main)
Параметр Endianness формата : Big
Идентификатор кодека : 2000
Продолжительность : 43 м. 33 с.
Вид битрейта : Постоянный
Битрейт : 192 Кбит/сек
Каналы : 2 канала
Расположение каналов : Front: L R
Частота : 48,0 КГц
Частота кадров : 31,250 кадров/сек (1536 spf)
Битовая глубина : 16 бит
Метод сжатия : С потерями
Размер потока : 59,8 Мбайт (8%)
Выравнивание : Разделение по промежуткам
Продолжительность промежутка : 40 мс. (1,00 видеокадр)
Время предзагрузки промежутка : 500 мс





   Похожие торренты   Торрент   Размер 
В этой теме нет новых непрочитанных сообщений. Две жизни (1956) SATRip-AVC от New-Team

3 | 0

744.85 МБ

В этой теме нет новых непрочитанных сообщений. Не та, так эта (1956) SATRip от New-Team

0 | 0

1.09 ГБ

В этой теме нет новых непрочитанных сообщений. Не та, так эта (1956) SATRip-AVC от New-Team

0 | 0

1.09 ГБ

В этой теме нет новых непрочитанных сообщений. Заноза (1956) SATRip от New-Team

2 | 0

744.65 МБ

В этой теме нет новых непрочитанных сообщений. Крылья (1956) SATRip-AVC от New-Team

4 | 0

1.09 ГБ

В этой теме нет новых непрочитанных сообщений. Это начиналось так... (1956) SATRip-AVC от New-Team

7 | 1

1.46 ГБ

В этой теме нет новых непрочитанных сообщений. Заноза (1956) SATRip от New-Team

2 | 0

1.09 ГБ




Вы не можете начинать темы
Вы не можете отвечать на сообщения
Вы не можете редактировать свои сообщения
Вы не можете удалять свои сообщения
Вы не можете добавлять вложения

Перейти:  
 Вход
ppkBB3cker v.2 © 2008-2014 @ PPK
[ Time : 0.032s | 16 Queries | GZIP : Off ]

cron