img image001 image001 image001 image001 image001 image001 image001 image001 image001 image001 image001 image001 image001 image001 image001 image001

Planets Sun Sun Sun
Статистика раздачи
Автор: PriZraK | Размер: 1.86 ГБ | Добавлен: 21 дек 2016
Раздают: 61    Качают: 2
Скачать торрент
Скачать торрент
Описание торрента

СообщениеДобавлено: 21 дек 2016 


Информация о фильме
Оригинальное название: Монах и бес
Год выпуска: 2016
Жанр: Комедия, фантастика
Режиссер: Николай Досталь
В ролях: Тимофей Трибунцев, Георгий Фетисов, Борис Каморзин, Роман Мадянов, Никита Тарасов, Сергей Барковский
О фильме:
Фантастическая история первой половины XIX века. В мужском монастыре появляется новый насельник Иван Семенович. Но вместе с монахом в монастырь проникают темные силы, которые материализуются в лице Легиона (так он представился Ивану). Легион избрал Ивана объектом своей дьявольской работы, всячески искушая его, чтобы сбить с избранного им пути служения Богу. Но чем сильнее искушение, тем крепче духовные силы Ивана.

Страна: Россия
Студия: Эталон-фильм, Профит
Продолжительность: 01:53:03
Язык: Русский
Файл
Качество: WEB- (AVC)
Видео: MPEG-4 AVC, 1970 Кбит/с, 1024x554
Аудио: AC3, 6 ch, 384 Кбит/с
Релиз без рекламы.
General
Unique ID : 204213947013076715558508459762915719485 (0x99A22CF1978455789BCFEFF1D803B93D)
Complete name : D:Monax.i.Bes.2O16.O.WEB-.AVC.ExKinoRay.mkv
Format : Matroska
Format version : Version 2
File size : 1.86 GiB
Duration : 1 h 53 min
Overall bit rate : 2 355 kb/s
Movie name : Монах и бес 2016 from ExKinoRay
Encoded date : UTC 2016-12-19 16:48:24
Writing application : mkvmerge v7.6.0 ('Garden of Dreams') 32bit built on Feb 11 2015 00:18:47
Writing library : libebml v1.3.1 + libmatroska v1.4.2
Video
ID : 1
Format : AVC
Format/Info : Advanced Video Codec
Format profile : High@L4.1
Format settings, CABAC : Yes
Format settings, ReFrames : 12 frames
Codec ID : V_MPEG4/ISO/AVC
Duration : 1 h 53 min
Bit rate : 1 970 kb/s
Width : 1 024 pixels
Height : 554 pixels
Display aspect ratio : 1.85:1
Frame rate mode : Constant
Frame rate : 24.000 FPS
Color space : YUV
Chroma subsampling : 4:2:0
Bit depth : 8 bits
Scan type : Progressive
Bits/(Pixel*Frame) : 0.145
Stream size : 1.52 GiB (82%)
Title : Enigma
Writing library : x264 core 144 r2525 40bb568
Encoding settings : cabac=1 / ref=12 / deblock=1:-2:-2 / analyse=0x3:0x113 / me=umh / subme=10 / psy=1 / psy_rd=1.00:0.05 / mixed_ref=1 / me_range=32 / chroma_me=1 / trellis=2 / 8x8dct=1 / cqm=0 / deadzone=21,11 / fast_pskip=1 / chroma_qp_offset=-3 / threads=12 / lookahead_threads=3 / sliced_threads=0 / nr=0 / decimate=1 / interlaced=0 / bluray_compat=0 / constrained_intra=0 / bframes=10 / b_pyramid=2 / b_adapt=2 / b_bias=0 / direct=3 / weightb=1 / open_gop=0 / weightp=2 / keyint=240 / keyint_min=24 / scenecut=40 / intra_refresh=0 / rc_lookahead=40 / rc=2pass / mbtree=0 / bitrate=1970 / ratetol=1.0 / qcomp=0.60 / qpmin=0 / qpmax=51 / qpstep=4 / cplxblur=20.0 / qblur=0.5 / vbv_maxrate=50000 / vbv_bufsize=62500 / nal_hrd=none / filler=0 / ip_ratio=1.40 / pb_ratio=1.30 / aq=1:1.00
Default : Yes
Forced : No
Color range : Limited
Color primaries : BT.709
Transfer characteristics : BT.709
Matrix coefficients : BT.709
Audio
ID : 2
Format : AC-3
Format/Info : Audio Coding 3
Mode extension : CM (complete main)
Format settings, Endianness : Big
Codec ID : A_AC3
Duration : 1 h 53 min
Bit rate mode : Constant
Bit rate : 384 kb/s
Channel(s) : 6 channels
Channel positions : Front: L C R, Side: L R, LFE
Sampling rate : 48.0 kHz
Frame rate : 31.250 FPS (1536 spf)
Compression mode : Lossy
Stream size : 311 MiB (16%)
Title :
Language : Russian
Default : Yes
Forced : No
Menu
00:00:00.000 : en:Глава 1
00:05:05.000 : en:Глава 2
00:10:23.791 : en:Глава 3
00:15:43.791 : en:Глава 4
00:20:55.791 : en:Глава 5
00:26:39.249 : en:Глава 6
00:32:24.165 : en:Глава 7
00:38:20.623 : en:Глава 8
00:44:23.206 : en:Глава 9
00:50:23.664 : en:Глава 10
00:56:04.372 : en:Глава 11
01:02:05.330 : en:Глава 12
01:07:42.830 : en:Глава 13
01:12:52.663 : en:Глава 14
01:17:59.163 : en:Глава 15
01:24:00.288 : en:Глава 16
01:29:15.454 : en:Глава 17
01:35:52.204 : en:Глава 18
01:41:12.120 : en:Глава 19
01:46:18.161 : en:Глава 20


Релиз от:
Автор релиза:



   Похожие торренты   Торрент   Размер 
В этой теме нет новых непрочитанных сообщений. Монах и бес (2016) WEB-DLRip AVC | iTunes

22 | 0

2.05 ГБ

В этой теме нет новых непрочитанных сообщений. Монах и бес (2016) WEB-DLRip-AVC | iTunes

36 | 1

749.46 МБ

В этой теме нет новых непрочитанных сообщений. Монах и бес (2016) WEB-DLRip от Generalfilm | КПК | iTunes

6 | 0

470.41 МБ

В этой теме нет новых непрочитанных сообщений. Монах и бес (2016) WEB-DLRip от MegaPeer | iTunes

660 | 3

1.46 ГБ

В этой теме нет новых непрочитанных сообщений. Монах и бес (2016) WEB-DLRip от MegaPeer | iTunes

118 | 1

2.18 ГБ

В этой теме нет новых непрочитанных сообщений. Монах и бес (2016) WEB-DLRip от MegaPeer | iTunes

60 | 0

745.99 МБ

В этой теме нет новых непрочитанных сообщений. Монах и бес (2016) WEB-DLRip от GeneralFilm | iTunes

431 | 6

1.45 ГБ




Вы не можете начинать темы
Вы не можете отвечать на сообщения
Вы не можете редактировать свои сообщения
Вы не можете удалять свои сообщения
Вы не можете добавлять вложения

Перейти:  
 Вход
ppkBB3cker v.2 © 2008-2014 @ PPK
[ Time : 0.025s | 17 Queries | GZIP : Off ]

cron