img image001 image001 image001 image001 image001 image001 image001 image001 image001 image001 image001 image001 image001 image001 image001

Planets Sun Sun Sun
Статистика раздачи
Автор: PriZraK | Размер: 744.74 МБ | Добавлен: 08 янв 2017
Раздают: 70    Качают: 0
Скачать торрент
Скачать торрент
Описание торрента

СообщениеДобавлено: 08 янв 2017 



Информация о фильме
Оригинальное название: Отогрей мое сердце
Год выпуска: 2016
Жанр: Мелодрама
Режиссер: Александр Грабарь
В ролях: Виктория Полторак, Александр Константинов, Марина Денисова, Святослав Астрамович, Ирина Фроемчук

О фильме:
Когда-то беременную Вику (Виктория Полторак) бросил муж Стас и ушел к другой женщине - Насте (Марина Денисова). От переживаний у Вики случился выкидыш, после которого она больше не смогла иметь детей. Вика замкнулась в себе и решила, что больше никогда не выйдет замуж.Спустя несколько лет Вика стала строгой, уверенной в себе и преуспевающей женщиной – директором известного рекламного агентства. Ее молодой человек мечтает о семье, но Вика соглашается лишь на свободные отношения. И вот спустя много лет в ее доме появляется та самая разлучница Настя. Стас совершил ограбление, чтобы раздобыть деньги ей на операцию, и его арестовали. Настя нужно срочно ложиться в больницу, иначе она может умереть, но ей не с кем оставить их дочь Леру. Брат Насти – моряк Алексей (Александр Константинов) сможет приехать и забрать Настю только через несколько дней. Настя просит Вику помочь ей и забрать девочку к себе. Вика выставляет Настю за дверь… но обстоятельства складываются так, что Вика вынуждена согласиться. Внезапно Настя умирает, и Вика оказывается один на один с ее ребенко...



Страна: Россия
Студия: "Паламеда Продакшн", студия "Сварог", Продюсерский центр "Фабула"
Продолжительность: 01:32:01
Перевод: Не требуется

Файл
Формат: avi
Качество: HDTVRip
Видео: XviD build 73, 688x384 (16:9), 25.000 fps, 995 Kbps (0.151 bit/pixel)
Звук: 48.0 kHz, MP3, 2/0 ch, 128 kbps
Субтитры: нет

General
Complete name : Otogrej.Moe.Serdce.2016.XviD.HDTVRip.GeneralFilm.avi
Format : AVI
Format/Info : Audio Video Interleave
File size : 745 MiB
Duration : 1h 31mn
Overall bit rate : 1 133 Kbps
Writing application : VirtualDubMod 1.5.10.3 | www.virtualdub-fr.org || (build 2550/release)
Writing library : VirtualDubMod build 2550/release

Video
ID : 0
Format : MPEG-4 Visual
Format profile : Advanced Simple@L5
Format settings, BVOP : 1
Format settings, QPel : No
Format settings, GMC : No warppoints
Format settings, Matrix : Custom
Codec ID : XVID
Codec ID/Hint : XviD
Duration : 1h 31mn
Bit rate : 995 Kbps
Width : 688 pixels
Height : 384 pixels
Display aspect ratio : 16:9
Frame rate : 25.000 fps
Color space : YUV
Chroma subsampling : 4:2:0
Bit depth : 8 bits
Scan type : Progressive
Compression mode : Lossy
Bits/(Pixel*Frame) : 0.151
Stream size : 654 MiB (88%)
Writing library : XviD 73

Audio
ID : 1
Format : MPEG Audio
Format version : Version 1
Format profile : Layer 3
Codec ID : 55
Codec ID/Hint : MP3
Duration : 1h 31mn
Bit rate mode : Constant
Bit rate : 128 Kbps
Channel(s) : 2 channels
Sampling rate : 48.0 KHz
Compression mode : Lossy
Stream size : 84.2 MiB (11%)
Alignment : Aligned on interleaves
Interleave, duration : 40 ms (1.00 video frame)
Interleave, preload duratio : 504 ms
Writing library : LAME3.99r
Encoding settings : -m s -V 4 -q 0 -lowpass 17 -b 128



Релиз от:



   Похожие торренты   Торрент   Размер 
В этой теме нет новых непрочитанных сообщений. Отогрей мое сердце (2016) HDTVRip от Files-x

76 | 5

1.37 ГБ

В этой теме нет новых непрочитанных сообщений. Отогрей мое сердце (2016) HDTVRip-AVC от Files-x

75 | 5

1.37 ГБ

В этой теме нет новых непрочитанных сообщений. Холодное сердце [01-02 из 02] (2016) HDTVRip от GeneralFilm

35 | 1

1.46 ГБ

В этой теме нет новых непрочитанных сообщений. Сердце ангела [01-04 из 08] (2015) HDTVRip от GeneralFilm

75 | 7

4.35 ГБ

В этой теме нет новых непрочитанных сообщений. Россия и Китай. Сердце Евразии (2015) HDTVRip от Generalfilm

205 | 14

545.94 МБ

В этой теме нет новых непрочитанных сообщений. Шифры нашего тела. Сердце (2013) HDTVRip от GeneralFilm

99 | 38

525.38 МБ

В этой теме нет новых непрочитанных сообщений. Холодное сердце [01-02 из 02] (2016) HDTV 1080i от GeneralFilm

3 | 0

10.29 ГБ




Вы не можете начинать темы
Вы не можете отвечать на сообщения
Вы не можете редактировать свои сообщения
Вы не можете удалять свои сообщения
Вы не можете добавлять вложения

Перейти:  
Для Мосгорсуда, Роскомнадзора и рекламодателей: mosgorsud-torrent[собачка]yandex.ru
 Вход
ppkBB3cker v.2 © 2008-2014 @ PPK
[ Time : 0.050s | 15 Queries | GZIP : Off ]

Торрент трекер RUTOR.IN, Не можете зайти на rutor.org? Какой новый адрес рутор? Какое зеркало рутор? Не работает rutor.org и зеркала? Тогда наш торрент специально для вас. Rutor.in неофициальное зеркало rutor. В случае если у Вас заблокирован rutor или вдруг Вы не можете на него зайти, то Вы без труда сможете скачать бесплатно и без рекламы последние новинки кино, игр, сериалов и прочего у нас, на Rutor.in. Не нужно использовать прокси, чтобы зайти на рутор, достаточно воспользоваться нашим ресурсом. Все новые фильмы, игры, сериалы, книги и музыка за 2013 и 2014 годы через торрент бесплатно. Скачивайте фильмы в хорошем качестве, игры для пк, xbox, playstation без регистрации. У нас вы найдете новые Зарубежные сериалы и Русские сериалы 2013, 2014, 2015 годов. Оставайтесь с нами, качайте любимые фильмы, игры, сериалы, книги и музыку.
cron