img image001 image001 image001 image001 image001 image001 image001 image001 image001 image001 image001 image001 image001 image001 image001

Planets Sun Sun Sun
Статистика раздачи
Автор: PriZraK | Размер: 4.15 ГБ | Добавлен: 11 янв 2017
Раздают: 68    Качают: 5
Скачать торрент
Скачать торрент
Описание торрента

СообщениеДобавлено: 11 янв 2017 



Информация о фильме
Название: Инсайт (Слепая любовь)
Год выхода: 2015
Жанр: Драма, мелодрама
Режиссер: Александр Котт
В ролях: Александр Яценко, Агриппина Стеклова, Андрей Бильжо, Филипп Авдеев, Михаил Черкасов, Дмитрий Муляр

О фильме:
Павел Зуев теряет зрение и вынужден начать свою жизнь с нуля. Все связи с его прежней жизнью разорваны, зато в новой он встречает незаурядную женщину, способную видеть больше, чем другие люди. Ее зовут символично: Надежда, и она работает в местной больнице. Надежда поможет Зуеву найти силы и новое чувство реальности. Два этих человека с одинаково сильными характерами переживут, возможно, лучшие дни своей жизни.

Страна: Россия
Студия: Пан-Атлантик Студио
Продолжительность: 01:28:38
Перевод: Не требуется

Файл
Кодек: h.264
Качество: HDTV 1080i
Видео: MPEG-TS AVC, ~ 5926 Кбит/с, 1920x1080, 25.000 кадр/с
Звук: Русский (AC3, 6 ch, 448 Кбит/с)
Субтитры: Нет

Семпл

Автор релиза - Silverok, первоисточник - Наш Кинороман HD

General
ID : 1 (0x1)
Complete name : D:uTorrentInsait.2015.HDTV.1080i.MediaClub.ts
Format : MPEG-TS
File size : 4.15 GiB
Duration : 1 h 28 min
Overall bit rate mode : Variable
Overall bit rate : 6 710 kb/s
Maximum Overall bit rate : 35.5 Mb/s

Video
ID : 4113 (0x1011)
Menu ID : 1 (0x1)
Format : AVC
Format/Info : Advanced Video Codec
Format profile : Main@L4
Format settings, CABAC : Yes
Format settings, ReFrames : 4 frames
Codec ID : 27
Duration : 1 h 28 min
Bit rate mode : Variable
Bit rate : 5 926 kb/s
Maximum bit rate : 40.0 Mb/s
Width : 1 920 pixels
Height : 1 080 pixels
Display aspect ratio : 16:9
Frame rate : 25.000 FPS
Color space : YUV
Chroma subsampling : 4:2:0
Bit depth : 8 bits
Scan type : Interlaced
Scan type, store method : Separated fields
Scan order : Top Field First
Bits/(Pixel*Frame) : 0.114
Stream size : 3.67 GiB (88%)
Color range : Limited
Color primaries : BT.709
Transfer characteristics : BT.709
Matrix coefficients : BT.709

Audio
ID : 4352 (0x1100)
Menu ID : 1 (0x1)
Format : AC-3
Format/Info : Audio Coding 3
Mode extension : CM (complete main)
Format settings, Endianness : Big
Codec ID : 129
Duration : 1 h 28 min
Bit rate mode : Constant
Bit rate : 448 kb/s
Channel(s) : 6 channels
Channel positions : Front: L C R, Side: L R, LFE
Sampling rate : 48.0 kHz
Frame rate : 31.250 FPS (1536 spf)
Compression mode : Lossy
Delay relative to video : 40 ms
Stream size : 284 MiB (7%)
Language : Russian



Релиз от: | Silverok



   Похожие торренты   Торрент   Размер 
В этой теме нет новых непрочитанных сообщений. Инсайт / Слепая любовь (2015) HDTVRip-AVC от MediaClub

35 | 0

1.32 ГБ

В этой теме нет новых непрочитанных сообщений. Нинкина любовь (2015) HDTV 1080i от MediaClub

195 | 29

6.12 ГБ

В этой теме нет новых непрочитанных сообщений. Весной расцветает любовь [01-03 из 20] (2015) HDTV 1080i от MediaClub

20 | 14

20.84 ГБ

В этой теме нет новых непрочитанных сообщений. Весной расцветает любовь [01-18 из 20] (2015) HDTV 1080i от MediaClub

3 | 23

46.09 ГБ

В этой теме нет новых непрочитанных сообщений. Весной расцветает любовь [01-03 из 20] (2015) HDTV 1080i от MediaClub

14 | 8

15.51 ГБ

В этой теме нет новых непрочитанных сообщений. Весной расцветает любовь [01-13 из 20] (2015) HDTV 1080i от MediaClub

33 | 58

33.69 ГБ

В этой теме нет новых непрочитанных сообщений. Следствие вели... с Леонидом Каневским. Любовь и золото [эфир от 28.11] (2015) HDTV 1080i от MediaClub

28 | 5

2.32 ГБ




Вы не можете начинать темы
Вы не можете отвечать на сообщения
Вы не можете редактировать свои сообщения
Вы не можете удалять свои сообщения
Вы не можете добавлять вложения

Перейти:  
Для Мосгорсуда, Роскомнадзора и рекламодателей: mosgorsud-torrent[собачка]yandex.ru
 Вход
ppkBB3cker v.2 © 2008-2014 @ PPK
[ Time : 0.032s | 16 Queries | GZIP : Off ]

Торрент трекер RUTOR.IN, Не можете зайти на rutor.org? Какой новый адрес рутор? Какое зеркало рутор? Не работает rutor.org и зеркала? Тогда наш торрент специально для вас. Rutor.in неофициальное зеркало rutor. В случае если у Вас заблокирован rutor или вдруг Вы не можете на него зайти, то Вы без труда сможете скачать бесплатно и без рекламы последние новинки кино, игр, сериалов и прочего у нас, на Rutor.in. Не нужно использовать прокси, чтобы зайти на рутор, достаточно воспользоваться нашим ресурсом. Все новые фильмы, игры, сериалы, книги и музыка за 2013 и 2014 годы через торрент бесплатно. Скачивайте фильмы в хорошем качестве, игры для пк, xbox, playstation без регистрации. У нас вы найдете новые Зарубежные сериалы и Русские сериалы 2013, 2014, 2015 годов. Оставайтесь с нами, качайте любимые фильмы, игры, сериалы, книги и музыку.
cron