img image001 image001 image001 image001 image001 image001 image001 image001 image001 image001 image001 image001 image001 image001 image001 image001

Planets Sun Sun Sun
Статистика раздачи
Автор: PriZraK | Размер: 1.46 ГБ | Добавлен: 15 янв 2017
Раздают: 47    Качают: 0
Скачать торрент
Скачать торрент
Описание торрента

СообщениеДобавлено: 15 янв 2017 


Информация о фильме
Название: Приключения Тома Сойера и Гекльберри Финна
Год выхода: 1981
Жанр: Детский, приключения
Режиссёр: Станислав Говорухин
В ролях: Федя Стуков, Владик Сухачев (Галкин), Маша Миронова, Дима Рощин, Карина Моритц, Екатерина Васильева, Ролан Быков, Владимир Конкин, Виктор Павлов, Талгат Нигматулин, Лев Перфилов, Всеволод Абдулов, Валентина Шендрикова, Борис Зайденберг, Федор Одиноков, Валерий Рубинчик, Игорь Сорин, Бехайлу Менгаша
О фильме: Экранизация самого знаменитого романа американского писателя Марка Твена «Приключения Тома Сойера». Без книги о приключениях Тома и его друзей Гекльберри Финна и Бекки Тэтчер нельзя представить детство ребенка! Маленькие, но отважные герои Том и Гек разыскивают клад, становятся «пиратами», вступают в опасную схватку с индейцем Джо. Но, самое главное в этой истории - то, что они учатся быть верными друзьями и добрыми людьми...

Страна: СССР
Студия: Одесская киностудия
Продолжительность: 03:22:20
Перевод: Не требуется (оригинальный)
Файл
Формат: avi
Качество: SATRip (DVB)
Видео: XviD, 640х480, 25fps, 893kbps
Аудио: MPEG Layer 3, 2ch, 48000Hz, 128kbps

Общее
Полное имя : Tom.Soier.I.Gek.Finn.1981.O.SATRip.1400.CurHaJI.avi
Формат : AVI
Формат/Информация : Audio Video Interleave
Размер файла : 1,46 Гбайт
Продолжительность : 3 ч. 22 м.
Общий поток : 1031 Кбит/сек
Название фильма : Tom.Soier.I.Gek.Finn.1981.O.SATRip.1400.CurHaJI
Библиотека кодирования : VirtualDub build 35491/release
Видео
Идентификатор : 0
Формат : MPEG-4 Visual
Профиль формата : Advanced Simple@L5
Параметр BVOP формата : 2
Параметр QPel формата : Нет
Параметр GMC формата : Без точки перехода
Параметр матрицы формата : Выборочная
Идентификатор кодека : XVID
Идентификатор кодека/Подсказка : XviD
Продолжительность : 3 ч. 22 м.
Битрейт : 893 Кбит/сек
Ширина : 640 пикселей
Высота : 480 пикселей
Соотношение сторон : 4:3
Частота кадров : 25,000 кадров/сек
Цветовое пространство : YUV
Субдискретизация насыщенности : 4:2:0
Битовая глубина : 8 бит
Тип развёртки : Прогрессивная
Метод сжатия : С потерями
Бит/(Пиксели*Кадры) : 0.116
Размер потока : 1,26 Гбайт (87%)
Библиотека кодирования : XviD 73
Аудио
Идентификатор : 1
Формат : MPEG Audio
Версия формата : Version 1
Профиль формата : Layer 3
Идентификатор кодека : 55
Идентификатор кодека/Подсказка : MP3
Продолжительность : 3 ч. 22 м.
Вид битрейта : Постоянный
Битрейт : 128 Кбит/сек
Каналы : 2 канала
Частота : 48,0 КГц
Метод сжатия : С потерями
Размер потока : 185 Мбайт (12%)
Выравнивание : Разделение по промежуткам
Продолжительность промежутка : 40 мс. (1,00 видеокадр)
Время предзагрузки промежутка : 500 мс.
Библиотека кодирования : LAME3.99r
Настройки программы : -m s -V 4 -q 2 -lowpass 17 -b 128


Релиз от:



   Похожие торренты   Торрент   Размер 
В этой теме нет новых непрочитанных сообщений. Приключения Тома Сойера и Гекльберри Финна (1981) SATRip

55 | 2

2.18 ГБ

В этой теме нет новых непрочитанных сообщений. Приключения Тома Сойера и Гекльберри Финна (1981) SATRip-AVC от ExKinoRay

367 | 60

4.22 ГБ

В этой теме нет новых непрочитанных сообщений. Приключения Тома Сойера / Les Aventures De Tom Sawyer. Смерть индейца Джо / Moartea Lui Joe Indianul (1968) SATRip | D

7 | 18

2.3 ГБ

В этой теме нет новых непрочитанных сообщений. Приключения Гекльберри Финна / Die Abenteuer des Huck Finn (2012) BDRip 720p от Leonardo and Scarabey | Лицензия

24 | 5

4.93 ГБ

В этой теме нет новых непрочитанных сообщений. Марк Твен - Приключения Тома Сойера (чит. Александр Котов) (2011) MP3

96 | 50

458.27 МБ

В этой теме нет новых непрочитанных сообщений. Марк Твен - Приключения Тома Сойера (чит. Валерий Захарьев) (2007) MP3

73 | 11

432.71 МБ

В этой теме нет новых непрочитанных сообщений. Марк Твен - Заговор Тома Сойера (2006) MP3

28 | 5

235.2 МБ




Вы не можете начинать темы
Вы не можете отвечать на сообщения
Вы не можете редактировать свои сообщения
Вы не можете удалять свои сообщения
Вы не можете добавлять вложения

Перейти:  
 Вход
ppkBB3cker v.2 © 2008-2014 @ PPK
[ Time : 0.025s | 17 Queries | GZIP : Off ]

cron