img image001 image001 image001 image001 image001 image001 image001 image001 image001 image001 image001 image001 image001 image001 image001 image001

Planets Sun Sun Sun
Статистика раздачи
Автор: Nickolas3434 | Размер: 744.63 МБ | Добавлен: 19 янв 2017
Раздают: 0    Качают: 3
Скачать торрент
Скачать торрент
Описание торрента

СообщениеДобавлено: 19 янв 2017 

Страна: СССР
Производство: Мосфильм
Жанр: драма
Год выпуска: 1956
Продолжительность: 01:30:39
Перевод: Не требуется
Cубтитры: нет
Оригинальная аудиодорожка: русский
Режиссер: Борис Барнет
В ролях:
Николай Крючков, Изольда Извицкая, Сергей Дворецкий, Зоя Фёдорова, Иосиф Колин (Гросс), Ольга Викландт, Пётр Алейников, Всеволод Ларионов, Георгий Георгиу, Иван Коваль-Самборский, Исай Гуров...
Об актёрах подробней
Описание:
Во время Гражданской войны в портовом городе устраиваются поэтические вечера, на которых блистают два местных лирика - Орловский и Тарасов. Позже Орловский станет участником белого движения, а Тарасов окажется на стороне красных…





Источник: DVB
Качество видео: SATRip
Формат видео: AVI
Видео: 640x480 (4:3), 25 fps, XviD ~ 1011 kbps avg, 0.132 bit/pixel
Аудио: 48 kHz, MP3 2.0, 128 kbps
Раздача от:
Общее
Полное имя : Poyet.1956.SATRip-745_[New-team]_by_AVP_Studio.avi
Формат : AVI
Формат/Информация : Audio Video Interleave
Размер файла : 745 Мбайт
Продолжительность : 1 ч. 30 м.
Общий поток : 1148 Кбит/сек
Программа кодирования : VirtualDubMod 1.5.10.3 | www.virtualdub-fr.org || (build 2550/release)
Библиотека кодирования : VirtualDubMod build 2550/release
Видео
Идентификатор : 0
Формат : MPEG-4 Visual
Профиль формата : Advanced Simple@L5
Параметр BVOP формата : 1
Параметр QPel формата : Нет
Параметр GMC формата : Без точки перехода
Параметр матрицы формата : Выборочная
Идентификатор кодека : XVID
Идентификатор кодека/Подсказка : XviD
Продолжительность : 1 ч. 30 м.
Битрейт : 1011 Кбит/сек
Ширина : 640 пикселей
Высота : 480 пикселей
Соотношение сторон : 4:3
Частота кадров : 25,000 кадров/сек
Цветовое пространство : YUV
Субдискретизация насыщенности : 4:2:0
Битовая глубина : 8 бит
Тип развёртки : Прогрессивная
Метод сжатия : С потерями
Бит/(Пиксели*Кадры) : 0.132
Размер потока : 655 Мбайт (88%)
Библиотека кодирования : XviD 73
Аудио
Идентификатор : 1
Формат : MPEG Audio
Версия формата : Version 1
Профиль формата : Layer 3
Идентификатор кодека : 55
Идентификатор кодека/Подсказка : MP3
Продолжительность : 1 ч. 30 м.
Вид битрейта : Постоянный
Битрейт : 128 Кбит/сек
Каналы : 2 канала
Частота : 48,0 КГц
Метод сжатия : С потерями
Размер потока : 83,0 Мбайт (11%)
Выравнивание : Соединение по промежуткам
Продолжительность промежутка : 40 мс. (1,00 видеокадр)
Время предзагрузки промежутка : 504 мс.
Библиотека кодирования : LAME3.99r
Настройки программы : -m s -V 4 -q 2 -lowpass 17 -b 128





   Похожие торренты   Торрент   Размер 
В этой теме нет новых непрочитанных сообщений. Поэт (1956) SATRip от New-Team

0 | 0

1.09 ГБ

В этой теме нет новых непрочитанных сообщений. Поэт (1956) SATRip-AVC от New-Team

0 | 2

1.09 ГБ

В этой теме нет новых непрочитанных сообщений. Не та, так эта (1956) SATRip-AVC от New-Team

0 | 0

1.09 ГБ

В этой теме нет новых непрочитанных сообщений. Не та, так эта (1956) SATRip от New-Team

0 | 0

1.09 ГБ

В этой теме нет новых непрочитанных сообщений. Моя дочь (1956) SATRip от New-Team

0 | 0

745.42 МБ

В этой теме нет новых непрочитанных сообщений. Призвание (1956) SATRip от New-Team

7 | 0

745.59 МБ

В этой теме нет новых непрочитанных сообщений. Призвание (1956) SATRip-AVC от New-Team

3 | 0

1.09 ГБ




Вы не можете начинать темы
Вы не можете отвечать на сообщения
Вы не можете редактировать свои сообщения
Вы не можете удалять свои сообщения
Вы не можете добавлять вложения

Перейти:  
 Вход
ppkBB3cker v.2 © 2008-2014 @ PPK
[ Time : 0.038s | 18 Queries | GZIP : Off ]

cron